<?xml version="1.0" standalone="no"?>
<!DOCTYPE svg PUBLIC "-//W3C//DTD SVG 1.1//EN" "http://www.w3.org/Graphics/SVG/1.1/DTD/svg11.dtd" >
<svg xmlns="http://www.w3.org/2000/svg" xmlns:xlink="http://www.w3.org/1999/xlink" version="1.1">
<metadata>
Created by FontForge 20150102 at Wed Feb 25 03:22:18 2015
 By uniteet7
Please review the description of this font at http://www.itcfonts.com.
</metadata>
<defs>
<font id="ITCAvantGardePro-Bk" horiz-adv-x="891" >
  <font-face 
    font-family="ITC Avant Garde Pro Bk"
    font-weight="300"
    font-stretch="normal"
    units-per-em="1000"
    panose-1="2 0 5 3 3 0 0 2 0 4"
    ascent="740"
    descent="-260"
    x-height="547"
    cap-height="740"
    bbox="-113 -230 1226 987"
    underline-thickness="50"
    underline-position="-50"
    stemh="69"
    stemv="74"
    unicode-range="U+0020-FB04"
  />
<missing-glyph horiz-adv-x="500" 
d="M12 0v665h475v-665h-475zM88 618l162 -243l161 243h-323zM60 575v-484c0 -1 161 242 161 242zM440 575l-162 -242l162 -243v485zM411 48l-161 242l-162 -242h323z" />
    <glyph glyph-name="f_t" unicode="ft" horiz-adv-x="562" 
d="M553 484h-131v-484h-70v484h-178v-484h-70v484h-85v63h85c2 76 8 204 210 206v-65c-138 0 -140 -85 -140 -137v-4h178v193h70v-193h131v-63z" />
    <glyph glyph-name="f_f_t" unicode="fft" horiz-adv-x="810" 
d="M801 484h-131v-484h-70v484h-178v-484h-70v484h-178v-484h-70v484h-85v63h85c2 76 8 204 210 206v-65c-138 0 -140 -85 -140 -137v-4h178c2 76 8 204 210 206v-65c-138 0 -140 -85 -140 -137v-4h178v193h70v-193h131v-63z" />
    <glyph glyph-name="f_f" unicode="ff" horiz-adv-x="562" 
d="M562 484h-140v-484h-70v484h-178v-484h-70v484h-85v63h85c2 76 8 204 210 206v-65c-138 0 -140 -85 -140 -137v-4h178c2 76 8 204 210 206v-65c-138 0 -140 -85 -140 -137v-4h140v-63z" />
    <glyph glyph-name="f_i" unicode="fi" horiz-adv-x="487" 
d="M422 614h-70v126h70v-126zM422 0h-70v484h-178v-484h-70v484h-85v63h85c1 27 2 55 9 82c26 97 109 123 201 124v-65c-101 0 -140 -41 -140 -137v-4h248v-547z" />
    <glyph glyph-name="f_l" unicode="fl" horiz-adv-x="485" 
d="M420 0h-70v484h-176v-484h-70v484h-85v63h85c1 27 2 55 9 82c26 97 109 123 201 124v-65c-101 0 -140 -41 -140 -137v-4h176v193h70v-740z" />
    <glyph glyph-name="f_f_i" unicode="ffi" horiz-adv-x="742" 
d="M670 614h-70v126h70v-126zM670 0h-70v484h-178v-484h-70v484h-178v-484h-70v484h-85v63h85c2 76 8 204 210 206v-65c-138 0 -140 -85 -140 -137v-4h178c2 76 8 204 210 206v-65c-138 0 -140 -85 -140 -137v-4h248v-547z" />
    <glyph glyph-name="f_f_l" unicode="ffl" horiz-adv-x="667" 
d="M595 0h-70v479h-152v-479h-70v479h-152v-479h-70v479h-66v64h66v38c0 86 53 161 185 165v-65c-54 -1 -115 -18 -115 -98v-40h152v38c0 86 53 161 185 165v-65c-54 -1 -115 -18 -115 -98v-40h152v197h70v-740z" />
    <glyph glyph-name=".notdef" horiz-adv-x="500" 
d="M12 0v665h475v-665h-475zM88 618l162 -243l161 243h-323zM60 575v-484c0 -1 161 242 161 242zM440 575l-162 -242l162 -243v485zM411 48l-161 242l-162 -242h323z" />
    <glyph glyph-name="space" unicode=" " horiz-adv-x="277" 
 />
    <glyph glyph-name="exclam" unicode="!" horiz-adv-x="295" 
d="M185 193h-74v547h74v-547zM185 0h-74v126h74v-126z" />
    <glyph glyph-name="quotedbl" unicode="&#x22;" horiz-adv-x="309" 
d="M273 740l-12 -296h-57l-12 296h81zM117 740l-12 -296h-57l-12 296h81z" />
    <glyph glyph-name="numbersign" unicode="#" horiz-adv-x="554" 
d="M521 467h-93l-27 -194h92v-67h-101l-29 -206h-69l29 206h-124l-29 -206h-69l29 206h-97v67h107l26 193h-107v68h117l29 206h69l-29 -206h124l29 206h69l-29 -206h83v-67zM359 467h-123l-27 -194h123z" />
    <glyph glyph-name="dollar" unicode="$" horiz-adv-x="554" 
d="M485 223c0 -99 -70 -184 -170 -194v-99h-74v99c-92 10 -171 91 -171 185v14h74c0 -86 52 -138 137 -138c81 0 130 53 130 133c0 90 -64 121 -140 140c-103 26 -179 66 -180 183v4c-1 91 60 161 150 177v84h74v-81c101 -14 159 -87 163 -186h-74c0 76 -50 121 -125 121
c-70 0 -114 -45 -114 -115c0 -84 61 -104 130 -122c106 -28 190 -82 190 -205z" />
    <glyph glyph-name="percent" unicode="%" horiz-adv-x="775" 
d="M383 572c0 -99 -82 -179 -181 -179s-181 80 -181 179s82 179 181 179s181 -80 181 -179zM630 740l-424 -740h-68l424 740h68zM753 166c0 -99 -82 -179 -181 -179s-181 80 -181 179s82 179 181 179s181 -80 181 -179zM323 572c0 68 -53 123 -121 123s-121 -55 -121 -123
s53 -123 121 -123s121 55 121 123zM693 166c0 68 -53 123 -121 123s-121 -55 -121 -123s53 -123 121 -123s121 55 121 123z" />
    <glyph glyph-name="ampersand" unicode="&#x26;" horiz-adv-x="757" 
d="M736 39l-53 -51l-169 165c-48 -92 -113 -165 -225 -165c-125 0 -233 99 -233 226c0 111 77 178 171 220c-45 44 -83 88 -83 155c0 96 86 164 178 164c94 0 177 -77 177 -173c0 -83 -71 -143 -144 -168l140 -138l108 208h83l-137 -261zM425 587c0 58 -49 96 -104 96
c-52 0 -103 -38 -103 -93c0 -51 48 -95 84 -126c58 22 123 50 123 123zM458 206l-178 175c-75 -26 -150 -86 -150 -171c0 -82 71 -152 153 -152c92 0 138 76 175 148z" />
    <glyph glyph-name="quoteright" unicode="&#x2019;" horiz-adv-x="351" 
d="M256 740l-88 -194h-74l88 194h74z" />
    <glyph glyph-name="parenleft" unicode="(" horiz-adv-x="369" 
d="M355 -205c-46 15 -88 43 -125 75c-115 101 -183 253 -183 406s68 305 183 406c37 32 79 60 125 75v-75c-137 -82 -234 -245 -234 -406c0 -164 95 -324 234 -409v-72z" />
    <glyph glyph-name="parenright" unicode=")" horiz-adv-x="369" 
d="M322 276c0 -153 -68 -305 -183 -406c-37 -32 -79 -60 -125 -75v72c139 85 234 245 234 409c0 161 -97 324 -234 406v75c46 -15 88 -43 125 -75c115 -101 183 -253 183 -406z" />
    <glyph glyph-name="asterisk" unicode="*" horiz-adv-x="425" 
d="M367 606l-110 -34l68 -92l-47 -34l-67 94l-66 -93l-47 34l69 92l-109 34l18 56l109 -38l-1 115h58l-2 -116l109 37z" />
    <glyph glyph-name="plus" unicode="+" horiz-adv-x="606" 
d="M555 219h-218v-219h-68v219h-218v68h218v219h68v-219h218v-68z" />
    <glyph glyph-name="comma" unicode="," horiz-adv-x="277" 
d="M176 126l-88 -193h-74l88 193h74z" />
    <glyph glyph-name="hyphen" unicode="-" horiz-adv-x="332" 
d="M302 248h-272v67h272v-67z" />
    <glyph glyph-name="period" unicode="." horiz-adv-x="277" 
d="M176 0h-74v126h74v-126z" />
    <glyph glyph-name="slash" unicode="/" horiz-adv-x="437" 
d="M403 740l-283 -840h-76l280 840h79z" />
    <glyph glyph-name="zero" unicode="0" horiz-adv-x="554" 
d="M525 270c0 -55 -9 -119 -37 -168c-45 -76 -124 -115 -211 -115s-166 39 -211 115c-28 49 -37 113 -37 168v216c0 46 7 95 28 136c42 83 128 131 220 131s178 -48 220 -131c21 -41 28 -90 28 -136v-216zM451 281v188c0 43 -9 104 -32 141c-29 46 -88 76 -142 76
s-113 -30 -142 -76c-23 -37 -32 -98 -32 -141v-188c0 -45 5 -110 28 -148c32 -53 85 -79 146 -79s114 26 146 79c23 38 28 103 28 148z" />
    <glyph glyph-name="one" unicode="1" horiz-adv-x="554" 
d="M336 0h-74v673h-127v67h201v-740z" />
    <glyph glyph-name="two" unicode="2" horiz-adv-x="554" 
d="M514 528c0 -101 -67 -169 -136 -234l-238 -227h370v-67h-470v67l260 250c58 56 140 124 140 212c0 87 -74 157 -160 157c-107 0 -160 -85 -160 -185h-74v2c0 105 43 193 144 232c30 12 62 18 94 18c96 0 175 -53 212 -141c11 -26 18 -55 18 -84z" />
    <glyph glyph-name="three" unicode="3" horiz-adv-x="554" 
d="M506 228c0 -133 -98 -241 -233 -241c-30 0 -61 6 -88 17c-101 38 -147 124 -151 228h74c3 -37 7 -67 26 -99c30 -50 81 -79 139 -79c98 0 159 75 159 170c0 75 -54 140 -126 158c-28 7 -58 6 -86 7v65c8 0 17 -1 25 -1c73 0 138 37 138 116c0 67 -47 117 -115 117
c-73 0 -111 -65 -111 -131h-74c3 109 73 198 187 198c108 0 187 -83 187 -190c0 -63 -29 -102 -76 -139c74 -39 125 -111 125 -196z" />
    <glyph glyph-name="four" unicode="4" horiz-adv-x="554" 
d="M528 135h-67v-135h-74v135h-373v67l359 538h88v-538h67v-67zM387 202v436h-2l-286 -436h288z" />
    <glyph glyph-name="five" unicode="5" horiz-adv-x="554" 
d="M530 245c0 -140 -109 -258 -251 -258c-29 0 -59 6 -86 16c-103 37 -153 125 -167 230h74c10 -97 77 -179 179 -179c103 0 177 92 177 191c0 100 -70 193 -176 193c-63 0 -117 -36 -154 -84l-58 21l67 365h333v-67h-274l-37 -204c40 22 80 35 126 35
c143 0 247 -119 247 -259z" />
    <glyph glyph-name="six" unicode="6" horiz-adv-x="554" 
d="M530 246c0 -144 -107 -259 -253 -259c-151 0 -253 115 -253 263c0 85 43 149 89 217l184 272h84l-171 -251l2 -1c21 10 45 16 69 16c144 0 249 -115 249 -257zM456 245c0 102 -73 191 -179 191c-107 0 -179 -91 -179 -193c0 -101 75 -189 179 -189c107 0 179 88 179 191z
" />
    <glyph glyph-name="seven" unicode="7" horiz-adv-x="554" 
d="M491 673l-303 -673h-78l305 673h-352v67h428v-67z" />
    <glyph glyph-name="eight" unicode="8" horiz-adv-x="554" 
d="M513 215c0 -128 -109 -228 -235 -228s-237 99 -237 228c0 83 49 167 127 198c-51 33 -87 86 -87 148c0 110 87 192 196 192c110 0 196 -85 196 -195c0 -59 -37 -117 -88 -145c78 -37 128 -111 128 -198zM399 564c0 66 -53 122 -120 122c-69 0 -124 -53 -124 -122
c0 -66 58 -120 123 -120c66 0 121 53 121 120zM439 215c0 90 -74 160 -163 160c-85 0 -161 -71 -161 -157c0 -94 70 -164 164 -164c89 0 160 73 160 161z" />
    <glyph glyph-name="nine" unicode="9" horiz-adv-x="554" 
d="M530 489c0 -85 -43 -149 -89 -217l-184 -272h-84l171 251l-2 1c-21 -11 -45 -16 -69 -16c-144 0 -249 115 -249 257c0 144 107 259 253 259c151 0 253 -115 253 -263zM456 496c0 101 -75 189 -179 189c-107 0 -179 -88 -179 -191c0 -102 73 -191 179 -191
c107 0 179 91 179 193z" />
    <glyph glyph-name="colon" unicode=":" horiz-adv-x="277" 
d="M176 422h-74v126h74v-126zM176 0h-74v126h74v-126z" />
    <glyph glyph-name="semicolon" unicode=";" horiz-adv-x="277" 
d="M176 422h-74v126h74v-126zM176 126l-88 -193h-74l88 193h74z" />
    <glyph glyph-name="less" unicode="&#x3c;" horiz-adv-x="606" 
d="M554 -8l-508 230v62l508 230v-68l-425 -193l425 -193v-68z" />
    <glyph glyph-name="equal" unicode="=" horiz-adv-x="606" 
d="M555 320h-504v68h504v-68zM555 118h-504v68h504v-68z" />
    <glyph glyph-name="greater" unicode="&#x3e;" horiz-adv-x="606" 
d="M560 222l-508 -230v68l425 193l-425 193v68l508 -230v-62z" />
    <glyph glyph-name="question" unicode="?" horiz-adv-x="591" 
d="M526 530c0 -158 -181 -179 -189 -337h-74v4c0 179 189 210 189 336c0 84 -74 149 -156 149c-55 0 -104 -27 -135 -73c-22 -33 -23 -63 -23 -101h-74v19c0 127 111 225 235 225c127 0 227 -94 227 -222zM337 0h-74v126h74v-126z" />
    <glyph glyph-name="at" unicode="@" horiz-adv-x="867" 
d="M803 424c0 -33 -4 -66 -13 -97c-21 -76 -79 -171 -168 -171c-48 0 -78 33 -80 80h-2c-32 -52 -77 -80 -138 -80c-101 0 -156 87 -156 180c0 111 75 226 195 226c62 0 106 -29 124 -89h2l14 75h60l-42 -237c-3 -19 -9 -39 -9 -58c0 -20 11 -41 34 -41c63 0 99 83 111 135
c5 25 8 50 8 76c0 173 -124 274 -291 274c-189 0 -327 -139 -327 -328c0 -203 137 -326 338 -326c83 0 163 16 238 50l15 -51c-79 -37 -166 -55 -253 -55c-159 0 -300 64 -366 215c-22 50 -32 105 -32 160c0 230 166 391 395 391c197 0 343 -127 343 -329zM545 394
c0 59 -36 112 -99 112c-90 0 -140 -87 -140 -168c0 -69 34 -126 108 -126c92 0 131 104 131 182z" />
    <glyph glyph-name="A" unicode="A" horiz-adv-x="740" 
d="M729 0h-81l-107 249h-344l-108 -249h-77l316 740h83zM512 316l-142 340l-145 -340h287z" />
    <glyph glyph-name="B" unicode="B" horiz-adv-x="574" 
d="M544 212c0 -66 -28 -135 -85 -171c-59 -37 -113 -41 -181 -41h-204v740h186c94 0 188 -28 227 -121c10 -24 15 -50 15 -76c0 -68 -30 -109 -81 -149c76 -31 123 -100 123 -182zM428 546c0 32 -10 57 -31 81c-36 42 -99 46 -150 46h-99v-252h93c43 0 88 0 127 21
c38 20 60 62 60 104zM470 212c0 56 -36 104 -87 125c-45 18 -96 17 -144 17h-91v-287h104c47 0 96 0 140 19c50 21 78 73 78 126z" />
    <glyph glyph-name="C" unicode="C" horiz-adv-x="813" 
d="M771 194c-68 -125 -198 -207 -341 -207c-212 0 -387 168 -387 382c0 216 171 383 386 383c112 0 218 -48 292 -132c19 -21 36 -44 47 -70h-83c-57 85 -155 135 -257 135c-170 0 -311 -149 -311 -317c0 -166 145 -314 312 -314c107 0 196 56 259 140h83z" />
    <glyph glyph-name="D" unicode="D" horiz-adv-x="744" 
d="M699 368c0 -123 -65 -240 -168 -307c-67 -43 -163 -61 -241 -61h-216v740h216c79 0 174 -18 241 -61c105 -67 168 -187 168 -311zM625 371c0 97 -46 190 -126 245c-73 51 -157 57 -244 57h-107v-606h123c87 0 165 7 238 60c76 55 116 152 116 244z" />
    <glyph glyph-name="E" unicode="E" horiz-adv-x="536" 
d="M475 0h-405v740h405v-67h-331v-266h320v-67h-320v-273h331v-67z" />
    <glyph glyph-name="F" unicode="F" horiz-adv-x="485" 
d="M444 673h-300v-268h289v-67h-289v-338h-74v740h374v-67z" />
    <glyph glyph-name="G" unicode="G" horiz-adv-x="872" 
d="M828 340c-16 -203 -190 -353 -391 -353c-210 0 -397 169 -397 383c0 216 184 383 396 383c115 0 226 -49 302 -136c19 -21 37 -47 48 -74h-86c-52 90 -161 143 -263 143c-175 0 -323 -140 -323 -317c0 -179 150 -315 326 -315c130 0 266 90 299 219h-413v67h502z" />
    <glyph glyph-name="H" unicode="H" horiz-adv-x="683" 
d="M607 0h-74v347h-383v-347h-74v740h74v-326h383v326h74v-740z" />
    <glyph glyph-name="I" unicode="I" horiz-adv-x="226" 
d="M150 0h-74v740h74v-740z" />
    <glyph glyph-name="J" unicode="J" horiz-adv-x="482" 
d="M402 235c0 -46 0 -98 -19 -141c-30 -69 -103 -107 -176 -107c-112 0 -195 77 -201 189h73c5 -71 57 -122 129 -122c110 0 120 92 120 178v508h74v-505z" />
    <glyph glyph-name="K" unicode="K" horiz-adv-x="591" 
d="M591 0h-93l-247 321l-96 -118v-203h-74v740h74v-425h2l339 425h95l-293 -361z" />
    <glyph glyph-name="L" unicode="L" horiz-adv-x="462" 
d="M462 0h-380v740h74v-673h306v-67z" />
    <glyph glyph-name="M" unicode="M" horiz-adv-x="919" 
d="M843 0h-74v659h-2l-277 -659h-63l-275 659h-2v-659h-74v740h114l269 -630l270 630h114v-740z" />
    <glyph glyph-name="N" unicode="N" horiz-adv-x="740" 
d="M664 0h-74l-439 651h-2v-651h-74v740h100l413 -614h2v614h74v-740z" />
    <glyph glyph-name="O" unicode="O" horiz-adv-x="869" 
d="M826 370c0 -214 -181 -383 -392 -383c-207 0 -391 168 -391 379c0 216 176 387 391 387c212 0 392 -169 392 -383zM752 369c0 174 -144 317 -318 317c-176 0 -317 -145 -317 -320c0 -171 147 -312 317 -312c173 0 318 141 318 315z" />
    <glyph glyph-name="P" unicode="P" horiz-adv-x="592" 
d="M564 519c0 -72 -32 -137 -92 -178c-56 -38 -125 -43 -191 -43h-132v-298h-74v740h206c66 0 135 -5 191 -43c60 -41 92 -106 92 -178zM490 519c0 61 -31 109 -86 135c-42 20 -81 19 -127 19h-128v-308h128c46 0 85 -1 127 19c55 26 86 74 86 135z" />
    <glyph glyph-name="Q" unicode="Q" horiz-adv-x="871" 
d="M837 364c0 -105 -46 -199 -122 -270c34 -29 65 -41 110 -40v-67c-73 0 -112 16 -165 64c-65 -43 -144 -64 -222 -64c-212 0 -398 163 -398 380c0 223 179 386 399 386c223 0 398 -164 398 -389zM763 366c0 179 -145 320 -323 320c-181 0 -326 -141 -326 -323
c0 -29 4 -56 13 -84c52 17 101 25 156 25c162 0 260 -61 378 -162c61 60 102 137 102 224zM603 102c-31 24 -68 55 -101 75c-67 40 -152 60 -230 60c-44 0 -75 -4 -115 -21c11 -22 27 -42 43 -59c63 -68 147 -103 240 -103c58 0 115 14 163 48z" />
    <glyph glyph-name="R" unicode="R" horiz-adv-x="607" 
d="M572 501c0 -126 -96 -217 -220 -225l209 -276h-93l-251 335c46 0 114 -3 159 11c72 22 122 80 122 157c0 56 -31 115 -81 142c-46 25 -92 28 -144 28h-129v-673h-74v740h188c56 0 130 -3 182 -28c83 -40 132 -119 132 -211z" />
    <glyph glyph-name="S" unicode="S" horiz-adv-x="498" 
d="M473 204c0 -123 -101 -217 -223 -217c-131 0 -226 87 -228 220h74c4 -91 61 -153 154 -153c82 0 149 64 149 147c0 100 -84 134 -165 158c-105 31 -192 67 -192 195c0 117 94 199 208 199s205 -86 205 -201h-74c0 72 -58 134 -131 134c-74 0 -134 -54 -134 -129
c0 -99 101 -116 176 -139c106 -32 181 -99 181 -214z" />
    <glyph glyph-name="T" unicode="T" horiz-adv-x="426" 
d="M419 673h-169v-673h-74v673h-170v67h413v-67z" />
    <glyph glyph-name="U" unicode="U" horiz-adv-x="655" 
d="M579 279c0 -50 -7 -109 -28 -154c-42 -90 -126 -138 -224 -138s-182 48 -224 138c-21 45 -28 104 -28 154v461h74v-461c0 -40 5 -98 25 -134c33 -60 85 -91 153 -91s120 31 153 91c20 36 25 94 25 134v461h74v-461z" />
    <glyph glyph-name="V" unicode="V" horiz-adv-x="702" 
d="M693 740l-307 -740h-73l-305 740h82l261 -648l262 648h80z" />
    <glyph glyph-name="W" unicode="W" horiz-adv-x="960" 
d="M950 740l-212 -740h-94l-163 607h-2l-162 -607h-95l-211 740h76l181 -645h2l176 645h69l177 -644h2l181 644h75z" />
    <glyph glyph-name="X" unicode="X" horiz-adv-x="609" 
d="M602 0h-88l-208 316l-211 -316h-87l251 378l-237 362h87l197 -296l195 296h86l-238 -362z" />
    <glyph glyph-name="Y" unicode="Y" horiz-adv-x="592" 
d="M592 740l-260 -493v-247h-74v247l-257 493h82l211 -415l217 415h81z" />
    <glyph glyph-name="Z" unicode="Z" horiz-adv-x="480" 
d="M470 0h-458v67l364 606h-353v67h436v-67l-363 -606h374v-67z" />
    <glyph glyph-name="bracketleft" unicode="[" horiz-adv-x="351" 
d="M337 -179c-131 36 -204 141 -204 276v378c0 104 42 192 131 246c22 14 48 26 73 32v-75c-90 -39 -130 -105 -130 -203v-365c0 -105 29 -169 130 -214v-75z" />
    <glyph glyph-name="backslash" unicode="\" horiz-adv-x="605" 
d="M477 -100h-76l-283 840h79z" />
    <glyph glyph-name="bracketright" unicode="]" horiz-adv-x="351" 
d="M218 97c0 -135 -73 -240 -204 -276v75c101 45 130 109 130 214v365c0 98 -40 164 -130 203v75c25 -6 51 -18 73 -32c89 -54 131 -142 131 -246v-378z" />
    <glyph glyph-name="asciicircum" unicode="^" horiz-adv-x="606" 
d="M553 307h-70l-181 360l-178 -360h-71l218 433h64z" />
    <glyph glyph-name="underscore" unicode="_" horiz-adv-x="500" 
d="M500 -125h-500v50h500v-50z" />
    <glyph glyph-name="quoteleft" unicode="&#x2018;" horiz-adv-x="351" 
d="M257 546h-74l-88 194h74z" />
    <glyph glyph-name="a" unicode="a" horiz-adv-x="683" 
d="M621 0h-70v96h-2c-48 -72 -128 -109 -213 -109c-164 0 -294 123 -294 288c0 164 133 286 294 286c86 0 166 -36 213 -110h2v96h70v-547zM555 273c0 122 -95 225 -219 225c-130 0 -224 -97 -224 -226c0 -128 96 -222 224 -222c124 0 219 101 219 223z" />
    <glyph glyph-name="b" unicode="b" horiz-adv-x="682" 
d="M647 275c0 -165 -130 -288 -294 -288c-85 0 -165 39 -213 109h-2v-96h-70v740h70v-289h2c49 70 127 110 213 110c161 0 294 -122 294 -286zM577 272c0 129 -94 226 -224 226c-124 0 -219 -103 -219 -225s95 -223 219 -223c128 0 224 94 224 222z" />
    <glyph glyph-name="c" unicode="c" horiz-adv-x="647" 
d="M607 161c-56 -110 -145 -174 -272 -174c-161 0 -294 123 -294 286c0 161 134 288 294 288c119 0 227 -67 272 -179h-77c-38 72 -111 116 -193 116c-125 0 -226 -97 -226 -223c0 -127 99 -225 226 -225c81 0 155 38 193 111h77z" />
    <glyph glyph-name="d" unicode="d" horiz-adv-x="685" 
d="M618 0h-70v96h-2c-47 -70 -130 -109 -213 -109c-164 0 -294 123 -294 288c0 164 133 286 294 286c84 0 165 -38 213 -108h2v287h70v-740zM552 273c0 122 -95 225 -219 225c-130 0 -224 -97 -224 -226c0 -128 96 -222 224 -222c124 0 219 101 219 223z" />
    <glyph glyph-name="e" unicode="e" horiz-adv-x="650" 
d="M609 268c0 -7 -1 -13 -1 -20h-498c5 -108 105 -198 212 -198c84 0 166 48 196 129h74c-40 -114 -148 -192 -269 -192c-158 0 -285 129 -285 286c0 156 127 288 284 288c160 0 287 -135 287 -293zM537 311c-18 107 -104 187 -214 187c-109 0 -196 -80 -213 -187h427z" />
    <glyph glyph-name="f" unicode="f" horiz-adv-x="314" 
d="M314 484h-140v-484h-70v484h-85v63h85c1 27 2 55 9 82c26 97 109 123 201 124v-65c-101 0 -140 -41 -140 -137v-4h140v-63z" />
    <glyph glyph-name="g" unicode="g" horiz-adv-x="673" 
d="M606 86c0 -72 -5 -140 -50 -200c-50 -66 -135 -101 -217 -101c-132 0 -242 71 -280 201h74c35 -88 110 -138 205 -138c123 0 198 82 198 204v48h-2c-40 -76 -128 -113 -211 -113c-158 0 -286 125 -286 284s126 290 286 290c86 0 164 -39 211 -112h2v98h70v-461zM540 273
c0 120 -94 225 -217 225s-216 -104 -216 -225c0 -120 93 -223 216 -223c121 0 217 103 217 223z" />
    <glyph glyph-name="h" unicode="h" horiz-adv-x="610" 
d="M543 0h-70v301c0 52 -13 113 -52 150c-32 30 -75 47 -119 47s-87 -17 -119 -47c-38 -36 -51 -95 -51 -145v-306h-70v740h70v-263h2c36 56 103 84 168 84c157 0 241 -109 241 -260v-301z" />
    <glyph glyph-name="i" unicode="i" horiz-adv-x="200" 
d="M135 614h-70v126h70v-126zM135 0h-70v547h70v-547z" />
    <glyph glyph-name="j" unicode="j" horiz-adv-x="203" 
d="M137 614h-70v126h70v-126zM137 26c0 -67 -6 -127 -60 -174c-39 -34 -71 -43 -121 -44v69c99 3 111 79 111 161v509h70v-521z" />
    <glyph glyph-name="k" unicode="k" horiz-adv-x="502" 
d="M498 0h-90l-180 216l-88 -112v-104h-70v740h70v-527h2l255 334h90l-216 -276z" />
    <glyph glyph-name="l" unicode="l" horiz-adv-x="200" 
d="M135 0h-70v740h70v-740z" />
    <glyph glyph-name="m" unicode="m" horiz-adv-x="938" 
d="M872 0h-70v317c0 97 -41 181 -149 181s-149 -84 -149 -181v-317h-70v317c0 97 -41 181 -149 181s-149 -84 -149 -181v-317h-70v547h70v-63c33 52 89 77 149 77c78 0 146 -37 184 -105c42 67 104 105 184 105c140 0 219 -102 219 -236v-325z" />
    <glyph glyph-name="n" unicode="n" horiz-adv-x="610" 
d="M546 0h-70v301c0 52 -13 113 -52 150c-32 30 -75 47 -119 47s-87 -17 -119 -47c-38 -36 -51 -95 -51 -145v-306h-70v547h70v-70h2c36 56 103 84 168 84c157 0 241 -109 241 -260v-301z" />
    <glyph glyph-name="o" unicode="o" horiz-adv-x="655" 
d="M614 274c0 -157 -130 -287 -287 -287c-154 0 -285 129 -285 283c0 158 126 291 285 291c156 0 287 -131 287 -287zM544 277c0 119 -96 221 -216 221c-124 0 -216 -106 -216 -227c0 -119 95 -221 216 -221c126 0 216 104 216 227z" />
    <glyph glyph-name="p" unicode="p" horiz-adv-x="682" 
d="M643 275c0 -165 -130 -288 -294 -288c-85 0 -165 39 -213 109h-2v-288h-70v739h70v-96h2c50 71 127 110 213 110c161 0 294 -122 294 -286zM573 272c0 129 -94 226 -224 226c-124 0 -219 -103 -219 -225s95 -223 219 -223c128 0 224 94 224 222z" />
    <glyph glyph-name="q" unicode="q" horiz-adv-x="682" 
d="M616 -192h-70v288h-2c-47 -72 -128 -109 -213 -109c-164 0 -294 123 -294 288c0 164 133 286 294 286c85 0 166 -37 213 -110h2v96h70v-739zM550 273c0 122 -95 225 -219 225c-130 0 -224 -97 -224 -226c0 -128 96 -222 224 -222c124 0 219 101 219 223z" />
    <glyph glyph-name="r" unicode="r" horiz-adv-x="301" 
d="M291 487c-96 -8 -156 -69 -156 -167v-320h-70v547h70v-79h2c30 70 83 88 154 93v-74z" />
    <glyph glyph-name="s" unicode="s" horiz-adv-x="388" 
d="M364 154c0 -105 -69 -167 -172 -167c-98 0 -168 71 -168 169v6h70c1 -63 31 -112 98 -112c62 0 102 35 102 98c0 145 -254 78 -254 261c0 90 67 152 156 152c84 0 149 -65 149 -149h-70c-3 47 -32 86 -82 86c-47 0 -83 -35 -83 -82c0 -125 254 -60 254 -262z" />
    <glyph glyph-name="t" unicode="t" horiz-adv-x="339" 
d="M330 484h-131v-484h-70v484h-115v63h115v193h70v-193h131v-63z" />
    <glyph glyph-name="u" unicode="u" horiz-adv-x="608" 
d="M541 0h-66v85h-2c-32 -67 -103 -98 -175 -98c-71 0 -143 25 -188 82c-39 49 -48 115 -48 176v302h70v-301c0 -113 41 -196 166 -196c46 0 82 12 116 44c48 46 57 100 57 164v289h70v-547z" />
    <glyph glyph-name="v" unicode="v" horiz-adv-x="554" 
d="M546 547l-231 -547h-77l-231 547h75l193 -460l196 460h75z" />
    <glyph glyph-name="w" unicode="w" horiz-adv-x="831" 
d="M820 547l-209 -547h-79l-116 364h-2l-114 -364h-79l-208 547h73l172 -458h2l125 392h61l126 -392h2l174 458h72z" />
    <glyph glyph-name="x" unicode="x" horiz-adv-x="480" 
d="M468 0h-83l-145 219l-145 -219h-83l187 278l-187 269h84l144 -211l143 211h85l-187 -269z" />
    <glyph glyph-name="y" unicode="y" horiz-adv-x="536" 
d="M523 547l-317 -739h-73l95 210l-213 529h74l174 -436l186 436h74z" />
    <glyph glyph-name="z" unicode="z" horiz-adv-x="425" 
d="M415 0h-405v61l303 423h-293v63h377v-63l-300 -421h318v-63z" />
    <glyph glyph-name="braceleft" unicode="{" horiz-adv-x="351" 
d="M331 -189h-66c-73 0 -106 66 -106 131v182c0 53 -28 116 -89 119v64c59 3 89 68 89 120v182c0 65 33 131 106 131h66v-60h-50c-43 0 -48 -54 -48 -86v-183c0 -55 -29 -119 -87 -134v-3c12 -2 25 -8 35 -15c39 -27 52 -74 52 -119v-183c0 -32 5 -86 48 -86h50v-60z" />
    <glyph glyph-name="bar" unicode="|" horiz-adv-x="672" 
d="M373 -222h-74v1000h74v-1000z" />
    <glyph glyph-name="braceright" unicode="}" horiz-adv-x="351" 
d="M281 243c-61 -3 -89 -66 -89 -119v-182c0 -65 -33 -131 -106 -131h-66v60h50c43 0 48 54 48 86v183c0 45 13 92 52 119c10 7 23 13 35 15v3c-58 15 -87 79 -87 134v183c0 32 -5 86 -48 86h-50v60h66c73 0 106 -66 106 -131v-182c0 -52 30 -117 89 -120v-64z" />
    <glyph glyph-name="asciitilde" unicode="~" horiz-adv-x="606" 
d="M534 269c-32 -45 -65 -86 -125 -86c-80 0 -136 72 -217 72c-44 0 -68 -41 -84 -76l-36 50c26 51 65 86 125 86c77 0 167 -72 213 -72c41 0 68 46 88 76z" />
    <glyph glyph-name="exclamdown" unicode="&#xa1;" horiz-adv-x="295" 
d="M184 422h-74v126h74v-126zM184 -192h-74v547h74v-547z" />
    <glyph glyph-name="cent" unicode="&#xa2;" horiz-adv-x="554" 
d="M510 463h-81c-31 56 -79 84 -144 84c-89 0 -163 -75 -163 -164s74 -164 163 -164c58 0 105 22 136 72h83c-32 -76 -103 -126 -184 -136v-93h-74v94c-114 17 -198 111 -198 227s84 210 198 227v97h74v-96c86 -11 159 -67 190 -148z" />
    <glyph glyph-name="sterling" unicode="&#xa3;" horiz-adv-x="554" 
d="M552 212c0 -29 -6 -58 -17 -84c-41 -97 -135 -128 -233 -128h-273v63h148c22 34 35 75 35 116c0 81 -54 115 -102 170h-106v63h59c-14 33 -22 62 -22 98c0 135 97 243 235 243c124 0 223 -89 237 -212h-72c-14 84 -77 149 -165 149c-102 0 -161 -84 -161 -180
c0 -41 7 -65 29 -98h285v-63h-225v-2c49 -43 82 -101 82 -167c0 -44 -14 -77 -30 -117h43c99 0 179 44 179 154c0 17 -5 34 -9 51h74c6 -19 9 -36 9 -56z" />
    <glyph glyph-name="fraction" unicode="&#x2044;" horiz-adv-x="166" 
d="M280 740l-333 -740h-60l333 740h60z" />
    <glyph glyph-name="yen" unicode="&#xa5;" horiz-adv-x="554" 
d="M550 740l-181 -303h152v-63h-190l-17 -26v-58h207v-64h-207v-226h-74v227h-207v63h207v58l-17 26h-190v63h152l-181 303h80l194 -325l192 325h80z" />
    <glyph glyph-name="florin" unicode="&#x192;" horiz-adv-x="554" 
d="M518 816l-11 -67c-5 1 -10 1 -15 1c-96 0 -114 -91 -128 -166h112l-12 -67h-112l-81 -431c-13 -68 -20 -132 -72 -183c-41 -40 -99 -56 -155 -56c-19 0 -38 2 -56 7l13 64c16 -4 33 -6 50 -6c116 0 133 86 151 181l81 424h-114l13 67h112c11 65 27 138 79 183
c35 31 77 51 124 51c7 0 14 -1 21 -2z" />
    <glyph glyph-name="section" unicode="&#xa7;" horiz-adv-x="615" 
d="M529 281c0 -52 -39 -108 -81 -135c38 -32 52 -70 52 -119c0 -101 -93 -168 -188 -168c-120 0 -199 88 -203 205h74c5 -78 46 -138 129 -138c58 0 114 39 114 101c0 61 -40 84 -90 110c-52 27 -103 53 -155 80c-54 28 -96 65 -96 130c0 66 40 107 89 144
c-26 27 -40 64 -40 101c0 99 85 161 178 161c92 0 170 -47 170 -147h-74c0 55 -46 80 -96 80c-60 0 -104 -35 -104 -97c0 -41 21 -66 57 -84c49 -25 98 -49 147 -73c67 -33 117 -69 117 -151zM455 280c0 40 -28 69 -62 86l-175 87c-36 -21 -59 -61 -59 -102
c0 -36 21 -61 52 -76l188 -94c34 20 56 60 56 99z" />
    <glyph glyph-name="currency" unicode="&#xa4;" horiz-adv-x="576" 
d="M548 124l-41 -41l-78 78c-41 -31 -89 -49 -141 -49c-51 0 -101 18 -141 49l-79 -78l-41 41l80 79c-32 40 -50 88 -50 139s17 101 50 140l-81 80l41 41l81 -81c40 32 89 50 140 50c50 0 100 -18 139 -49l80 80l41 -41l-79 -80c32 -40 50 -88 50 -140
c0 -51 -19 -100 -51 -139zM447 342c0 87 -72 159 -159 159c-88 0 -160 -72 -160 -160c0 -86 75 -157 160 -157c86 0 159 72 159 158z" />
    <glyph glyph-name="quotesingle" unicode="'" horiz-adv-x="198" 
d="M140 740l-12 -296h-57l-12 296h81z" />
    <glyph glyph-name="quotedblleft" unicode="&#x201c;" horiz-adv-x="502" 
d="M406 546h-74l-87 194h73zM259 546h-74l-88 194h74z" />
    <glyph glyph-name="guillemotleft" unicode="&#xab;" horiz-adv-x="425" 
d="M386 114l-59 -33l-113 201l113 199l59 -31l-95 -168zM212 114l-59 -33l-113 201l113 199l59 -31l-94 -168z" />
    <glyph glyph-name="guilsinglleft" unicode="&#x2039;" horiz-adv-x="251" 
d="M212 114l-59 -33l-113 201l113 199l59 -31l-94 -168z" />
    <glyph glyph-name="guilsinglright" unicode="&#x203a;" horiz-adv-x="251" 
d="M211 282l-114 -201l-58 33l94 168l-94 168l58 31z" />
    <glyph glyph-name="endash" unicode="&#x2013;" horiz-adv-x="500" 
d="M465 248h-430v67h430v-67z" />
    <glyph glyph-name="dagger" unicode="&#x2020;" horiz-adv-x="553" 
d="M493 472h-180v-605h-74v605h-180v67h180v201h74v-201h180v-67z" />
    <glyph glyph-name="daggerdbl" unicode="&#x2021;" horiz-adv-x="553" 
d="M493 68h-180v-201h-74v201h-180v67h180v337h-180v67h180v201h74v-201h180v-67h-180v-337h180v-67z" />
    <glyph glyph-name="periodcentered" unicode="&#xb7;" horiz-adv-x="277" 
d="M176 190h-74v126h74v-126z" />
    <glyph glyph-name="paragraph" unicode="&#xb6;" horiz-adv-x="564" 
d="M551 684h-64v-794h-62v794h-120v-794h-62v458h-17c-115 0 -204 76 -204 194c0 66 31 131 88 166c39 25 109 32 155 32h286v-56z" />
    <glyph glyph-name="bullet" unicode="&#x2022;" horiz-adv-x="606" 
d="M455 377c0 -84 -67 -155 -152 -155s-153 71 -153 155c0 85 68 155 154 155c85 0 151 -72 151 -155z" />
    <glyph glyph-name="quotesinglbase" unicode="&#x201a;" horiz-adv-x="354" 
d="M251 126l-88 -194h-74l88 194h74z" />
    <glyph glyph-name="quotedblbase" unicode="&#x201e;" horiz-adv-x="502" 
d="M399 126l-88 -194h-74l88 194h74zM251 126l-88 -194h-74l88 194h74z" />
    <glyph glyph-name="quotedblright" unicode="&#x201d;" horiz-adv-x="484" 
d="M405 740l-88 -194h-74l88 194h74zM257 740l-87 -194h-74l88 194h73z" />
    <glyph glyph-name="guillemotright" unicode="&#xbb;" horiz-adv-x="425" 
d="M385 282l-114 -201l-58 33l94 168l-94 168l58 31zM211 282l-114 -201l-58 33l94 168l-94 168l58 31z" />
    <glyph glyph-name="ellipsis" unicode="&#x2026;" horiz-adv-x="1000" 
d="M870 0h-74v126h74v-126zM537 0h-74v126h74v-126zM204 0h-74v126h74v-126z" />
    <glyph glyph-name="perthousand" unicode="&#x2030;" horiz-adv-x="1174" 
d="M1148 166c0 -99 -82 -179 -181 -179s-181 80 -181 179s82 179 181 179s181 -80 181 -179zM387 572c0 -99 -82 -179 -181 -179s-181 80 -181 179s82 179 181 179s181 -80 181 -179zM634 740l-424 -740h-68l424 740h68zM757 166c0 -99 -82 -179 -181 -179s-181 80 -181 179
s82 179 181 179s181 -80 181 -179zM1088 166c0 68 -53 123 -121 123s-121 -55 -121 -123s53 -123 121 -123s121 55 121 123zM327 572c0 68 -53 123 -121 123s-121 -55 -121 -123s53 -123 121 -123s121 55 121 123zM697 166c0 68 -53 123 -121 123s-121 -55 -121 -123
s53 -123 121 -123s121 55 121 123z" />
    <glyph glyph-name="questiondown" unicode="&#xbf;" horiz-adv-x="591" 
d="M328 422h-74v126h74v-126zM527 20c0 -127 -111 -225 -235 -225c-127 0 -227 94 -227 222c0 158 181 179 189 338h74v-4c0 -179 -189 -211 -189 -336c0 -84 74 -150 156 -150c55 0 105 27 135 73c22 34 23 63 23 101h74v-19z" />
    <glyph glyph-name="grave" unicode="`" horiz-adv-x="378" 
d="M300 657l-33 -58l-198 107l32 60z" />
    <glyph glyph-name="acute" unicode="&#xb4;" horiz-adv-x="375" 
d="M309 706l-198 -107l-33 58l199 109z" />
    <glyph glyph-name="circumflex" unicode="&#x2c6;" horiz-adv-x="502" 
d="M428 609h-89l-86 73l-88 -73h-91l145 125h66z" />
    <glyph glyph-name="tilde" unicode="&#x2dc;" horiz-adv-x="439" 
d="M392 660c-27 -20 -64 -39 -98 -39c-60 0 -99 41 -145 41c-25 0 -49 -13 -67 -30l-35 50c29 27 64 42 104 42c58 0 96 -41 142 -41c24 0 43 14 63 26z" />
    <glyph glyph-name="macron" unicode="&#xaf;" horiz-adv-x="485" 
d="M411 629h-338v67h338v-67z" />
    <glyph glyph-name="breve" unicode="&#x2d8;" horiz-adv-x="453" 
d="M401 714c-28 -77 -99 -103 -175 -103s-146 26 -174 103h65c25 -34 69 -46 109 -46s85 12 110 46h65z" />
    <glyph glyph-name="dotaccent" unicode="&#x2d9;" horiz-adv-x="222" 
d="M148 619h-74v126h74v-126z" />
    <glyph glyph-name="dieresis" unicode="&#xa8;" horiz-adv-x="369" 
d="M295 619h-74v126h74v-126zM147 619h-74v126h74v-126z" />
    <glyph glyph-name="ring" unicode="&#x2da;" horiz-adv-x="332" 
d="M269 703c0 -57 -47 -103 -104 -103c-56 0 -103 47 -103 103s46 104 103 104c58 0 104 -46 104 -104zM217 703c0 29 -23 52 -52 52c-28 0 -51 -24 -51 -52s23 -51 51 -51s52 22 52 51z" />
    <glyph glyph-name="cedilla" unicode="&#xb8;" horiz-adv-x="324" 
d="M254 -138c0 -53 -42 -84 -92 -84c-46 0 -76 33 -83 77l42 2c4 -23 22 -42 46 -42c30 0 46 24 46 52c0 31 -18 47 -48 47c-18 0 -29 -6 -40 -19l-36 21l46 87l42 -3l-28 -56c11 3 21 4 33 4c47 0 72 -43 72 -86z" />
    <glyph glyph-name="hungarumlaut" unicode="&#x2dd;" horiz-adv-x="552" 
d="M486 730l-164 -135l-38 46l162 135zM311 730l-164 -135l-38 46l161 135z" />
    <glyph glyph-name="ogonek" unicode="&#x2db;" horiz-adv-x="302" 
d="M228 -182c-17 -6 -33 -9 -51 -9c-54 0 -104 31 -104 90c0 49 34 77 72 101h52c-30 -23 -75 -56 -75 -98c0 -32 29 -50 58 -50c16 0 33 4 48 10v-44z" />
    <glyph glyph-name="caron" unicode="&#x2c7;" horiz-adv-x="502" 
d="M423 734l-143 -125h-67l-145 125h92l86 -73l88 73h89z" />
    <glyph glyph-name="emdash" unicode="&#x2014;" horiz-adv-x="1000" 
d="M965 248h-930v67h930v-67z" />
    <glyph glyph-name="AE" unicode="&#xc6;" horiz-adv-x="992" 
d="M907 0h-391v250h-273l-174 -250h-89l515 740h412v-67h-317v-266h306v-67h-306v-273h317v-67zM516 317v328h-2l-224 -328h226z" />
    <glyph glyph-name="ordfeminine" unicode="&#xaa;" horiz-adv-x="434" 
d="M389 415h-60v52h-2c-25 -43 -72 -60 -120 -60c-96 0 -177 78 -177 174c0 97 82 172 177 172c48 0 94 -17 120 -60h2v52h60v-330zM332 581c0 67 -57 116 -122 116c-66 0 -120 -52 -120 -118c0 -65 56 -116 120 -116c68 0 122 48 122 118z" />
    <glyph glyph-name="Lslash" unicode="&#x141;" horiz-adv-x="517" 
d="M517 0h-380v313l-78 -56v77l78 56v350h74v-296l153 111v-77l-153 -111v-300h306v-67z" />
    <glyph glyph-name="Oslash" unicode="&#xd8;" horiz-adv-x="868" 
d="M826 370c0 -214 -181 -383 -392 -383c-73 0 -139 19 -201 56l-94 -126l-55 40l93 126c-83 73 -134 176 -134 287c0 213 180 383 391 383c75 0 140 -19 204 -57l92 123l55 -40l-92 -123c84 -74 133 -174 133 -286zM752 369c0 90 -37 169 -101 231l-377 -502
c49 -28 104 -44 161 -44c172 0 317 142 317 315zM596 641c-51 30 -103 45 -162 45c-173 0 -317 -144 -317 -317c0 -88 37 -171 102 -230z" />
    <glyph glyph-name="OE" unicode="&#x152;" horiz-adv-x="1194" 
d="M1142 0h-391v151h-2c-57 -105 -192 -164 -308 -164c-220 0 -396 160 -396 384c0 215 174 382 387 382c115 0 259 -55 317 -160h2v147h391v-67h-317v-267h306v-67h-306v-272h317v-67zM752 371c0 175 -141 315 -316 315s-317 -136 -317 -312c0 -175 134 -320 312 -320
c177 0 321 139 321 317z" />
    <glyph glyph-name="ordmasculine" unicode="&#xba;" horiz-adv-x="404" 
d="M374 581c0 -95 -76 -174 -172 -174c-93 0 -172 76 -172 170c0 96 75 176 172 176c94 0 172 -78 172 -172zM314 581c0 62 -47 116 -111 116c-66 0 -113 -54 -113 -118s48 -116 113 -116c67 0 111 53 111 118z" />
    <glyph glyph-name="ae" unicode="&#xe6;" horiz-adv-x="1157" 
d="M1114 267c0 -7 -1 -13 -1 -20h-495c10 -110 102 -197 213 -197c81 0 166 49 194 128h70c-34 -113 -148 -191 -264 -191c-83 0 -169 41 -214 112h-2v-99h-70v99h-2c-51 -77 -126 -112 -217 -112c-120 0 -222 65 -269 176c-14 34 -23 72 -23 109s9 75 23 109
c47 112 148 180 270 180c89 0 171 -35 216 -115h2v101h70v-101h2c39 73 133 115 213 115c161 0 284 -137 284 -294zM1043 310c-17 107 -102 188 -212 188s-196 -81 -213 -188h425zM548 272c0 126 -93 226 -221 226c-125 0 -223 -104 -223 -228c0 -122 101 -220 222 -220
c126 0 222 96 222 222z" />
    <glyph glyph-name="dotlessi" unicode="&#x131;" horiz-adv-x="200" 
d="M135 0h-70v547h70v-547z" />
    <glyph glyph-name="lslash" unicode="&#x142;" horiz-adv-x="300" 
d="M259 441l-76 -55v-386h-70v335l-70 -52v71l70 51v335h70v-284l76 55v-70z" />
    <glyph glyph-name="oslash" unicode="&#xf8;" horiz-adv-x="653" 
d="M613 274c0 -157 -130 -287 -287 -287c-51 0 -102 14 -145 42l-71 -93l-54 38l72 95c-54 53 -87 125 -87 201c0 158 126 291 285 291c51 0 101 -14 144 -41l72 94l55 -41l-72 -94c55 -54 88 -128 88 -205zM543 277c0 56 -19 109 -58 149l-264 -345c31 -20 69 -31 106 -31
c126 0 216 104 216 227zM431 468c-31 19 -67 30 -104 30c-124 0 -216 -106 -216 -227c0 -55 20 -108 58 -148z" />
    <glyph glyph-name="oe" unicode="&#x153;" horiz-adv-x="1137" 
d="M1105 268c0 -7 -1 -13 -1 -20h-497c6 -109 105 -198 213 -198c81 0 167 50 194 129h74c-37 -113 -149 -192 -267 -192c-106 0 -203 58 -253 151c-49 -92 -144 -151 -249 -151c-154 0 -285 129 -285 283c0 158 126 291 285 291c105 0 202 -60 251 -152
c49 93 145 152 250 152c159 0 285 -136 285 -293zM1034 311c-17 107 -102 187 -212 187c-109 0 -196 -81 -213 -187h425zM537 271c0 121 -93 227 -217 227s-216 -106 -216 -227c0 -119 95 -221 216 -221s217 102 217 221z" />
    <glyph glyph-name="germandbls" unicode="&#xdf;" horiz-adv-x="554" 
d="M525 200c0 -122 -85 -213 -208 -213c-82 0 -155 43 -184 122h-2v-109h-70v481c0 59 1 129 35 180c37 56 105 92 172 92c122 0 205 -89 205 -209c0 -70 -26 -121 -88 -154c88 -30 140 -95 140 -190zM455 193c0 41 -14 81 -46 108c-43 37 -97 41 -151 41h-34v67
c94 0 179 34 179 142c0 79 -55 139 -135 139c-47 0 -89 -25 -112 -66c-24 -44 -25 -94 -25 -143v-278h51c2 -76 51 -153 134 -153c80 0 139 64 139 143z" />
    <glyph glyph-name="logicalnot" unicode="&#xac;" horiz-adv-x="606" 
d="M555 109h-68v211h-436v68h504v-279z" />
    <glyph glyph-name="mu" unicode="&#xb5;" horiz-adv-x="608" 
d="M543 0h-66v85h-2c-32 -67 -103 -98 -175 -98c-65 0 -125 14 -166 69v-248h-70v739h70v-301c0 -112 41 -196 166 -196c46 0 83 12 116 44c48 46 57 99 57 164v289h70v-547z" />
    <glyph glyph-name="trademark" unicode="&#x2122;" horiz-adv-x="892" 
d="M816 296h-55v372h-2l-163 -372h-46l-162 371h-2v-371h-55v444h78l164 -365l164 365h79v-444zM274 693h-105v-397h-55v397h-105v47h265v-47z" />
    <glyph glyph-name="Eth" unicode="&#xd0;" horiz-adv-x="810" 
d="M759 368c0 -46 -11 -97 -28 -140c-66 -164 -211 -228 -381 -228h-216v347h-74v67h74v326h212c169 0 317 -65 384 -228c18 -45 29 -95 29 -144zM685 371c0 97 -46 190 -126 245c-73 51 -157 57 -244 57h-107v-259h210v-67h-210v-280h123c87 0 165 7 238 60
c76 55 116 152 116 244z" />
    <glyph glyph-name="onehalf" unicode="&#xbd;" horiz-adv-x="684" 
d="M149 296h-60v390h-75v54h135v-444zM465 740l-333 -740h-60l333 740h60zM653 312c0 -63 -39 -100 -82 -140l-129 -118h210v-54h-298v49l158 147c33 30 81 68 81 117c0 47 -41 84 -87 84c-65 0 -88 -48 -88 -107h-60v5c0 93 57 156 150 156c78 0 145 -59 145 -139z" />
    <glyph glyph-name="plusminus" unicode="&#xb1;" horiz-adv-x="606" 
d="M555 272h-218v-178h-68v178h-218v68h218v178h68v-178h218v-68zM555 -24h-504v68h504v-68z" />
    <glyph glyph-name="Thorn" unicode="&#xde;" horiz-adv-x="592" 
d="M549 370c0 -72 -32 -137 -92 -178c-56 -38 -125 -43 -191 -43h-132v-149h-74v740h74v-149h132c66 0 135 -5 191 -43c60 -41 92 -106 92 -178zM475 370c0 61 -31 109 -86 135c-42 20 -81 19 -127 19h-128v-308h128c46 0 85 -1 127 19c55 26 86 74 86 135z" />
    <glyph glyph-name="onequarter" unicode="&#xbc;" horiz-adv-x="635" 
d="M149 296h-60v390h-75v54h135v-444zM465 740l-333 -740h-60l333 740h60zM603 78h-41v-78h-59v78h-225v49l219 317h65v-312h41v-54zM503 132v222h-2l-149 -222h151z" />
    <glyph glyph-name="divide" unicode="&#xf7;" horiz-adv-x="606" 
d="M340 393h-74v126h74v-126zM555 219h-504v68h504v-68zM340 -13h-74v126h74v-126z" />
    <glyph glyph-name="brokenbar" unicode="&#xa6;" horiz-adv-x="672" 
d="M373 353h-74v350h74v-350zM373 -147h-74v350h74v-350z" />
    <glyph glyph-name="degree" unicode="&#xb0;" horiz-adv-x="400" 
d="M344 565c0 -80 -64 -144 -144 -144s-144 64 -144 144s64 144 144 144s144 -64 144 -144zM294 565c0 53 -41 94 -94 94s-94 -41 -94 -94s41 -94 94 -94s94 41 94 94z" />
    <glyph glyph-name="thorn" unicode="&#xfe;" horiz-adv-x="682" 
d="M643 275c0 -165 -130 -288 -294 -288c-85 0 -165 39 -213 109h-2v-288h-70v932h70v-289h2c49 71 127 110 213 110c161 0 294 -122 294 -286zM573 272c0 129 -94 226 -224 226c-124 0 -219 -103 -219 -225s95 -223 219 -223c128 0 224 94 224 222z" />
    <glyph glyph-name="threequarters" unicode="&#xbe;" horiz-adv-x="784" 
d="M324 435c0 -83 -66 -146 -148 -146c-93 0 -150 64 -152 156h60c0 -60 36 -102 92 -102c54 0 88 38 88 91c0 40 -32 73 -70 82c-18 4 -38 4 -57 4v54h24c36 0 74 17 74 58c0 43 -31 61 -62 61c-42 0 -59 -39 -59 -75h-60c1 73 46 129 121 129c70 0 120 -50 120 -117
c0 -37 -14 -58 -41 -80c42 -26 70 -64 70 -115zM614 740l-333 -740h-60l333 740h60zM752 78h-41v-78h-59v78h-225v49l219 317h65v-312h41v-54zM652 132v222h-2l-149 -222h151z" />
    <glyph glyph-name="registered" unicode="&#xae;" horiz-adv-x="747" 
d="M755 370c0 -210 -171 -382 -381 -382c-211 0 -383 170 -383 382s172 382 383 382s381 -172 381 -382zM700 370c0 181 -144 331 -327 331s-327 -149 -327 -331c0 -181 144 -331 327 -331s327 150 327 331zM554 148h-55c-13 21 -12 57 -13 81c-2 84 -26 104 -112 104h-109
v-185h-55v437h188c77 0 150 -30 150 -119c0 -54 -27 -93 -81 -106v-2c60 -17 70 -52 73 -109c1 -29 -1 -75 14 -101zM493 463c0 62 -59 71 -108 71h-120v-151h116c53 0 112 15 112 80z" />
    <glyph glyph-name="minus" unicode="&#x2212;" horiz-adv-x="606" 
d="M555 219h-504v68h504v-68z" />
    <glyph glyph-name="eth" unicode="&#xf0;" horiz-adv-x="655" 
d="M614 286c0 -164 -120 -298 -287 -298c-160 0 -285 129 -285 288c0 154 125 282 280 282c56 0 100 -13 146 -46l2 2c-37 51 -92 92 -146 124l-155 -61l-50 39l145 55c-37 19 -77 37 -117 49l78 33c41 -12 81 -31 119 -51l133 51l48 -37l-125 -49
c131 -94 214 -216 214 -381zM544 279c0 125 -97 216 -220 216c-29 0 -59 -7 -86 -19c-85 -37 -126 -113 -126 -204c0 -120 92 -221 214 -221c127 0 218 104 218 228z" />
    <glyph glyph-name="multiply" unicode="&#xd7;" horiz-adv-x="606" 
d="M533 72l-48 -48l-181 182l-182 -182l-48 48l182 182l-181 180l48 48l181 -180l180 180l48 -48l-180 -180z" />
    <glyph glyph-name="copyright" unicode="&#xa9;" horiz-adv-x="747" 
d="M755 370c0 -210 -171 -382 -381 -382c-211 0 -383 170 -383 382s172 382 383 382s381 -172 381 -382zM700 370c0 181 -144 331 -327 331s-327 -149 -327 -331c0 -181 144 -331 327 -331s327 150 327 331zM571 295c-11 -95 -102 -152 -192 -152c-133 0 -215 100 -215 228
s82 228 215 228c90 0 181 -57 192 -152h-55c-16 73 -66 101 -137 101c-106 0 -160 -77 -160 -177s54 -177 160 -177c71 0 121 28 137 101h55z" />
    <glyph glyph-name="Aacute" unicode="&#xc1;" horiz-adv-x="740" 
d="M729 0h-81l-107 249h-344l-108 -249h-77l316 740h83zM512 316l-142 340l-145 -340h287zM492 889l-198 -107l-33 58l199 109z" />
    <glyph glyph-name="Acircumflex" unicode="&#xc2;" horiz-adv-x="740" 
d="M729 0h-81l-107 249h-344l-108 -249h-77l316 740h83zM512 316l-142 340l-145 -340h287zM547 802h-89l-86 73l-88 -73h-91l145 125h66z" />
    <glyph glyph-name="Adieresis" unicode="&#xc4;" horiz-adv-x="740" 
d="M729 0h-81l-107 249h-344l-108 -249h-77l316 740h83zM512 316l-142 340l-145 -340h287zM481 802h-74v126h74v-126zM333 802h-74v126h74v-126z" />
    <glyph glyph-name="Agrave" unicode="&#xc0;" horiz-adv-x="740" 
d="M729 0h-81l-107 249h-344l-108 -249h-77l316 740h83zM512 316l-142 340l-145 -340h287zM481 840l-33 -58l-198 107l32 60z" />
    <glyph glyph-name="Aring" unicode="&#xc5;" horiz-adv-x="740" 
d="M729 0h-81l-107 249h-344l-108 -249h-77l316 740h83zM512 316l-142 340l-145 -340h287zM473 851c0 -57 -47 -103 -104 -103c-56 0 -103 47 -103 103s46 104 103 104c58 0 104 -46 104 -104zM421 851c0 29 -23 52 -52 52c-28 0 -51 -24 -51 -52s23 -51 51 -51s52 22 52 51
z" />
    <glyph glyph-name="Atilde" unicode="&#xc3;" horiz-adv-x="740" 
d="M729 0h-81l-107 249h-344l-108 -249h-77l316 740h83zM512 316l-142 340l-145 -340h287zM543 843c-27 -20 -64 -39 -98 -39c-60 0 -99 41 -145 41c-25 0 -49 -13 -67 -30l-35 50c29 27 64 42 104 42c58 0 96 -41 142 -41c24 0 43 14 63 26z" />
    <glyph glyph-name="Ccedilla" unicode="&#xc7;" horiz-adv-x="813" 
d="M498 -138c0 -53 -42 -84 -92 -84c-46 0 -76 33 -83 77l42 2c4 -23 22 -42 46 -42c30 0 46 24 46 52c0 31 -18 47 -48 47c-18 0 -29 -6 -40 -19l-36 21l40 76c-186 26 -330 182 -330 377c0 216 171 383 386 383c112 0 218 -48 292 -132c19 -21 36 -44 47 -70h-83
c-57 85 -155 135 -257 135c-170 0 -311 -149 -311 -317c0 -166 145 -314 312 -314c107 0 196 56 259 140h83c-68 -125 -198 -207 -341 -207c-5 0 -11 1 -16 1l-21 -44c11 3 21 4 33 4c47 0 72 -43 72 -86z" />
    <glyph glyph-name="Eacute" unicode="&#xc9;" horiz-adv-x="536" 
d="M475 0h-405v740h405v-67h-331v-266h320v-67h-320v-273h331v-67zM390 889l-198 -107l-33 58l199 109z" />
    <glyph glyph-name="Ecircumflex" unicode="&#xca;" horiz-adv-x="536" 
d="M475 0h-405v740h405v-67h-331v-266h320v-67h-320v-273h331v-67zM445 802h-89l-86 73l-88 -73h-91l145 125h66z" />
    <glyph glyph-name="Edieresis" unicode="&#xcb;" horiz-adv-x="536" 
d="M475 0h-405v740h405v-67h-331v-266h320v-67h-320v-273h331v-67zM379 802h-74v126h74v-126zM231 802h-74v126h74v-126z" />
    <glyph glyph-name="Egrave" unicode="&#xc8;" horiz-adv-x="536" 
d="M475 0h-405v740h405v-67h-331v-266h320v-67h-320v-273h331v-67zM379 840l-33 -58l-198 107l32 60z" />
    <glyph glyph-name="Iacute" unicode="&#xcd;" horiz-adv-x="226" 
d="M150 0h-74v740h74v-740zM274 889l-198 -107l-33 58l199 109z" />
    <glyph glyph-name="Icircumflex" unicode="&#xce;" horiz-adv-x="226" 
d="M150 0h-74v740h74v-740zM290 802h-89l-86 73l-88 -73h-91l145 125h66z" />
    <glyph glyph-name="Idieresis" unicode="&#xcf;" horiz-adv-x="226" 
d="M150 0h-74v740h74v-740zM224 802h-74v126h74v-126zM76 802h-74v126h74v-126z" />
    <glyph glyph-name="Igrave" unicode="&#xcc;" horiz-adv-x="226" 
d="M150 0h-74v740h74v-740zM184 840l-33 -58l-198 107l32 60z" />
    <glyph glyph-name="Ntilde" unicode="&#xd1;" horiz-adv-x="740" 
d="M664 0h-74l-439 651h-2v-651h-74v740h100l413 -614h2v614h74v-740zM543 843c-27 -20 -64 -39 -98 -39c-60 0 -99 41 -145 41c-25 0 -49 -13 -67 -30l-35 50c29 27 64 42 104 42c58 0 96 -41 142 -41c24 0 43 14 63 26z" />
    <glyph glyph-name="Oacute" unicode="&#xd3;" horiz-adv-x="869" 
d="M826 370c0 -214 -181 -383 -392 -383c-207 0 -391 168 -391 379c0 216 176 387 391 387c212 0 392 -169 392 -383zM752 369c0 174 -144 317 -318 317c-176 0 -317 -145 -317 -320c0 -171 147 -312 317 -312c173 0 318 141 318 315zM596 889l-198 -107l-33 58l199 109z
" />
    <glyph glyph-name="Ocircumflex" unicode="&#xd4;" horiz-adv-x="869" 
d="M826 370c0 -214 -181 -383 -392 -383c-207 0 -391 168 -391 379c0 216 176 387 391 387c212 0 392 -169 392 -383zM752 369c0 174 -144 317 -318 317c-176 0 -317 -145 -317 -320c0 -171 147 -312 317 -312c173 0 318 141 318 315zM612 802h-89l-86 73l-88 -73h-91
l145 125h66z" />
    <glyph glyph-name="Odieresis" unicode="&#xd6;" horiz-adv-x="869" 
d="M826 370c0 -214 -181 -383 -392 -383c-207 0 -391 168 -391 379c0 216 176 387 391 387c212 0 392 -169 392 -383zM752 369c0 174 -144 317 -318 317c-176 0 -317 -145 -317 -320c0 -171 147 -312 317 -312c173 0 318 141 318 315zM545 802h-74v126h74v-126zM397 802h-74
v126h74v-126z" />
    <glyph glyph-name="Ograve" unicode="&#xd2;" horiz-adv-x="869" 
d="M826 370c0 -214 -181 -383 -392 -383c-207 0 -391 168 -391 379c0 216 176 387 391 387c212 0 392 -169 392 -383zM752 369c0 174 -144 317 -318 317c-176 0 -317 -145 -317 -320c0 -171 147 -312 317 -312c173 0 318 141 318 315zM546 840l-33 -58l-198 107l32 60z" />
    <glyph glyph-name="Otilde" unicode="&#xd5;" horiz-adv-x="869" 
d="M826 370c0 -214 -181 -383 -392 -383c-207 0 -391 168 -391 379c0 216 176 387 391 387c212 0 392 -169 392 -383zM752 369c0 174 -144 317 -318 317c-176 0 -317 -145 -317 -320c0 -171 147 -312 317 -312c173 0 318 141 318 315zM607 843c-27 -20 -64 -39 -98 -39
c-60 0 -99 41 -145 41c-25 0 -49 -13 -67 -30l-35 50c29 27 64 42 104 42c58 0 96 -41 142 -41c24 0 43 14 63 26z" />
    <glyph glyph-name="Scaron" unicode="&#x160;" horiz-adv-x="498" 
d="M473 204c0 -123 -101 -217 -223 -217c-131 0 -226 87 -228 220h74c4 -91 61 -153 154 -153c82 0 149 64 149 147c0 100 -84 134 -165 158c-105 31 -192 67 -192 195c0 117 94 199 208 199s205 -86 205 -201h-74c0 72 -58 134 -131 134c-74 0 -134 -54 -134 -129
c0 -99 101 -116 176 -139c106 -32 181 -99 181 -214zM421 927l-143 -125h-67l-145 125h92l86 -73l88 73h89z" />
    <glyph glyph-name="Uacute" unicode="&#xda;" horiz-adv-x="655" 
d="M579 279c0 -50 -7 -109 -28 -154c-42 -90 -126 -138 -224 -138s-182 48 -224 138c-21 45 -28 104 -28 154v461h74v-461c0 -40 5 -98 25 -134c33 -60 85 -91 153 -91s120 31 153 91c20 36 25 94 25 134v461h74v-461zM469 889l-198 -107l-33 58l199 109z" />
    <glyph glyph-name="Ucircumflex" unicode="&#xdb;" horiz-adv-x="655" 
d="M579 279c0 -50 -7 -109 -28 -154c-42 -90 -126 -138 -224 -138s-182 48 -224 138c-21 45 -28 104 -28 154v461h74v-461c0 -40 5 -98 25 -134c33 -60 85 -91 153 -91s120 31 153 91c20 36 25 94 25 134v461h74v-461zM505 802h-89l-86 73l-88 -73h-91l145 125h66z" />
    <glyph glyph-name="Udieresis" unicode="&#xdc;" horiz-adv-x="655" 
d="M579 279c0 -50 -7 -109 -28 -154c-42 -90 -126 -138 -224 -138s-182 48 -224 138c-21 45 -28 104 -28 154v461h74v-461c0 -40 5 -98 25 -134c33 -60 85 -91 153 -91s120 31 153 91c20 36 25 94 25 134v461h74v-461zM438 802h-74v126h74v-126zM290 802h-74v126h74v-126z
" />
    <glyph glyph-name="Ugrave" unicode="&#xd9;" horiz-adv-x="655" 
d="M579 279c0 -50 -7 -109 -28 -154c-42 -90 -126 -138 -224 -138s-182 48 -224 138c-21 45 -28 104 -28 154v461h74v-461c0 -40 5 -98 25 -134c33 -60 85 -91 153 -91s120 31 153 91c20 36 25 94 25 134v461h74v-461zM419 840l-33 -58l-198 107l32 60z" />
    <glyph glyph-name="Yacute" unicode="&#xdd;" horiz-adv-x="592" 
d="M592 740l-260 -493v-247h-74v247l-257 493h82l211 -415l217 415h81zM438 889l-198 -107l-33 58l199 109z" />
    <glyph glyph-name="Ydieresis" unicode="&#x178;" horiz-adv-x="592" 
d="M592 740l-260 -493v-247h-74v247l-257 493h82l211 -415l217 415h81zM407 802h-74v126h74v-126zM259 802h-74v126h74v-126z" />
    <glyph glyph-name="Zcaron" unicode="&#x17d;" horiz-adv-x="480" 
d="M470 0h-458v67l364 606h-353v67h436v-67l-363 -606h374v-67zM412 927l-143 -125h-67l-145 125h92l86 -73l88 73h89z" />
    <glyph glyph-name="aacute" unicode="&#xe1;" horiz-adv-x="683" 
d="M621 0h-70v96h-2c-48 -72 -128 -109 -213 -109c-164 0 -294 123 -294 288c0 164 133 286 294 286c86 0 166 -36 213 -110h2v96h70v-547zM555 273c0 122 -95 225 -219 225c-130 0 -224 -97 -224 -226c0 -128 96 -222 224 -222c124 0 219 101 219 223zM463 726l-198 -107
l-33 58l199 109z" />
    <glyph glyph-name="acircumflex" unicode="&#xe2;" horiz-adv-x="683" 
d="M621 0h-70v96h-2c-48 -72 -128 -109 -213 -109c-164 0 -294 123 -294 288c0 164 133 286 294 286c86 0 166 -36 213 -110h2v96h70v-547zM555 273c0 122 -95 225 -219 225c-130 0 -224 -97 -224 -226c0 -128 96 -222 224 -222c124 0 219 101 219 223zM519 639h-89l-86 73
l-88 -73h-91l145 125h66z" />
    <glyph glyph-name="adieresis" unicode="&#xe4;" horiz-adv-x="683" 
d="M621 0h-70v96h-2c-48 -72 -128 -109 -213 -109c-164 0 -294 123 -294 288c0 164 133 286 294 286c86 0 166 -36 213 -110h2v96h70v-547zM555 273c0 122 -95 225 -219 225c-130 0 -224 -97 -224 -226c0 -128 96 -222 224 -222c124 0 219 101 219 223zM452 639h-74v126h74
v-126zM304 639h-74v126h74v-126z" />
    <glyph glyph-name="agrave" unicode="&#xe0;" horiz-adv-x="683" 
d="M621 0h-70v96h-2c-48 -72 -128 -109 -213 -109c-164 0 -294 123 -294 288c0 164 133 286 294 286c86 0 166 -36 213 -110h2v96h70v-547zM555 273c0 122 -95 225 -219 225c-130 0 -224 -97 -224 -226c0 -128 96 -222 224 -222c124 0 219 101 219 223zM453 677l-33 -58
l-198 107l32 60z" />
    <glyph glyph-name="aring" unicode="&#xe5;" horiz-adv-x="683" 
d="M621 0h-70v96h-2c-48 -72 -128 -109 -213 -109c-164 0 -294 123 -294 288c0 164 133 286 294 286c86 0 166 -36 213 -110h2v96h70v-547zM555 273c0 122 -95 225 -219 225c-130 0 -224 -97 -224 -226c0 -128 96 -222 224 -222c124 0 219 101 219 223zM445 703
c0 -57 -47 -103 -104 -103c-56 0 -103 47 -103 103s46 104 103 104c58 0 104 -46 104 -104zM393 703c0 29 -23 52 -52 52c-28 0 -51 -24 -51 -52s23 -51 51 -51s52 22 52 51z" />
    <glyph glyph-name="atilde" unicode="&#xe3;" horiz-adv-x="683" 
d="M621 0h-70v96h-2c-48 -72 -128 -109 -213 -109c-164 0 -294 123 -294 288c0 164 133 286 294 286c86 0 166 -36 213 -110h2v96h70v-547zM555 273c0 122 -95 225 -219 225c-130 0 -224 -97 -224 -226c0 -128 96 -222 224 -222c124 0 219 101 219 223zM514 690
c-27 -20 -64 -39 -98 -39c-60 0 -99 41 -145 41c-25 0 -49 -13 -67 -30l-35 50c29 27 64 42 104 42c58 0 96 -41 142 -41c24 0 43 14 63 26z" />
    <glyph glyph-name="ccedilla" unicode="&#xe7;" horiz-adv-x="647" 
d="M607 161c-56 -108 -140 -171 -266 -173l-22 -44c11 4 21 4 33 4c47 0 72 -43 72 -86c0 -53 -42 -84 -92 -84c-46 0 -76 33 -83 77l42 2c4 -23 22 -42 46 -42c30 0 46 24 46 52c0 31 -18 47 -48 47c-16 0 -31 -6 -40 -19l-36 21l39 74c-146 15 -257 136 -257 283
c0 161 134 288 294 288c120 0 227 -67 272 -179h-77c-38 72 -111 116 -193 116c-125 0 -226 -97 -226 -223c0 -127 99 -225 226 -225c81 0 155 38 193 111h77z" />
    <glyph glyph-name="eacute" unicode="&#xe9;" horiz-adv-x="650" 
d="M609 268c0 -7 -1 -13 -1 -20h-498c5 -108 105 -198 212 -198c84 0 166 48 196 129h74c-40 -114 -148 -192 -269 -192c-158 0 -285 129 -285 286c0 156 127 288 284 288c160 0 287 -135 287 -293zM537 311c-18 107 -104 187 -214 187c-109 0 -196 -80 -213 -187h427z
M447 726l-198 -107l-33 58l199 109z" />
    <glyph glyph-name="ecircumflex" unicode="&#xea;" horiz-adv-x="650" 
d="M609 268c0 -7 -1 -13 -1 -20h-498c5 -108 105 -198 212 -198c84 0 166 48 196 129h74c-40 -114 -148 -192 -269 -192c-158 0 -285 129 -285 286c0 156 127 288 284 288c160 0 287 -135 287 -293zM537 311c-18 107 -104 187 -214 187c-109 0 -196 -80 -213 -187h427z
M502 639h-89l-86 73l-88 -73h-91l145 125h66z" />
    <glyph glyph-name="edieresis" unicode="&#xeb;" horiz-adv-x="650" 
d="M609 268c0 -7 -1 -13 -1 -20h-498c5 -108 105 -198 212 -198c84 0 166 48 196 129h74c-40 -114 -148 -192 -269 -192c-158 0 -285 129 -285 286c0 156 127 288 284 288c160 0 287 -135 287 -293zM537 311c-18 107 -104 187 -214 187c-109 0 -196 -80 -213 -187h427z
M436 639h-74v126h74v-126zM288 639h-74v126h74v-126z" />
    <glyph glyph-name="egrave" unicode="&#xe8;" horiz-adv-x="650" 
d="M609 268c0 -7 -1 -13 -1 -20h-498c5 -108 105 -198 212 -198c84 0 166 48 196 129h74c-40 -114 -148 -192 -269 -192c-158 0 -285 129 -285 286c0 156 127 288 284 288c160 0 287 -135 287 -293zM537 311c-18 107 -104 187 -214 187c-109 0 -196 -80 -213 -187h427z
M436 677l-33 -58l-198 107l32 60z" />
    <glyph glyph-name="iacute" unicode="&#xed;" horiz-adv-x="200" 
d="M135 0h-70v547h70v-547zM261 726l-198 -107l-33 58l199 109z" />
    <glyph glyph-name="icircumflex" unicode="&#xee;" horiz-adv-x="200" 
d="M135 0h-70v547h70v-547zM277 639h-89l-86 73l-88 -73h-91l145 125h66z" />
    <glyph glyph-name="idieresis" unicode="&#xef;" horiz-adv-x="200" 
d="M135 0h-70v547h70v-547zM211 639h-74v126h74v-126zM63 639h-74v126h74v-126z" />
    <glyph glyph-name="igrave" unicode="&#xec;" horiz-adv-x="200" 
d="M135 0h-70v547h70v-547zM171 677l-33 -58l-198 107l32 60z" />
    <glyph glyph-name="ntilde" unicode="&#xf1;" horiz-adv-x="610" 
d="M546 0h-70v301c0 52 -13 113 -52 150c-32 30 -75 47 -119 47s-87 -17 -119 -47c-38 -36 -51 -95 -51 -145v-306h-70v547h70v-70h2c36 56 103 84 168 84c157 0 241 -109 241 -260v-301zM478 690c-27 -20 -64 -39 -98 -39c-60 0 -99 41 -145 41c-25 0 -49 -13 -67 -30
l-35 50c29 27 64 42 104 42c58 0 96 -41 142 -41c24 0 43 14 63 26z" />
    <glyph glyph-name="oacute" unicode="&#xf3;" horiz-adv-x="655" 
d="M614 274c0 -157 -130 -287 -287 -287c-154 0 -285 129 -285 283c0 158 126 291 285 291c156 0 287 -131 287 -287zM544 277c0 119 -96 221 -216 221c-124 0 -216 -106 -216 -227c0 -119 95 -221 216 -221c126 0 216 104 216 227zM479 726l-198 -107l-33 58l199 109z" />
    <glyph glyph-name="ocircumflex" unicode="&#xf4;" horiz-adv-x="655" 
d="M614 274c0 -157 -130 -287 -287 -287c-154 0 -285 129 -285 283c0 158 126 291 285 291c156 0 287 -131 287 -287zM544 277c0 119 -96 221 -216 221c-124 0 -216 -106 -216 -227c0 -119 95 -221 216 -221c126 0 216 104 216 227zM505 639h-89l-86 73l-88 -73h-91l145 125
h66z" />
    <glyph glyph-name="odieresis" unicode="&#xf6;" horiz-adv-x="655" 
d="M614 274c0 -157 -130 -287 -287 -287c-154 0 -285 129 -285 283c0 158 126 291 285 291c156 0 287 -131 287 -287zM544 277c0 119 -96 221 -216 221c-124 0 -216 -106 -216 -227c0 -119 95 -221 216 -221c126 0 216 104 216 227zM438 639h-74v126h74v-126zM290 639h-74
v126h74v-126z" />
    <glyph glyph-name="ograve" unicode="&#xf2;" horiz-adv-x="655" 
d="M614 274c0 -157 -130 -287 -287 -287c-154 0 -285 129 -285 283c0 158 126 291 285 291c156 0 287 -131 287 -287zM544 277c0 119 -96 221 -216 221c-124 0 -216 -106 -216 -227c0 -119 95 -221 216 -221c126 0 216 104 216 227zM439 677l-33 -58l-198 107l32 60z" />
    <glyph glyph-name="otilde" unicode="&#xf5;" horiz-adv-x="655" 
d="M614 274c0 -157 -130 -287 -287 -287c-154 0 -285 129 -285 283c0 158 126 291 285 291c156 0 287 -131 287 -287zM544 277c0 119 -96 221 -216 221c-124 0 -216 -106 -216 -227c0 -119 95 -221 216 -221c126 0 216 104 216 227zM500 690c-27 -20 -64 -39 -98 -39
c-60 0 -99 41 -145 41c-25 0 -49 -13 -67 -30l-35 50c29 27 64 42 104 42c58 0 96 -41 142 -41c24 0 43 14 63 26z" />
    <glyph glyph-name="scaron" unicode="&#x161;" horiz-adv-x="388" 
d="M364 154c0 -105 -69 -167 -172 -167c-98 0 -168 71 -168 169v6h70c1 -63 31 -112 98 -112c62 0 102 35 102 98c0 145 -254 78 -254 261c0 90 67 152 156 152c84 0 149 -65 149 -149h-70c-3 47 -32 86 -82 86c-47 0 -83 -35 -83 -82c0 -125 254 -60 254 -262zM366 764
l-143 -125h-67l-145 125h92l86 -73l88 73h89z" />
    <glyph glyph-name="uacute" unicode="&#xfa;" horiz-adv-x="608" 
d="M541 0h-66v85h-2c-32 -67 -103 -98 -175 -98c-71 0 -143 25 -188 82c-39 49 -48 115 -48 176v302h70v-301c0 -113 41 -196 166 -196c46 0 82 12 116 44c48 46 57 100 57 164v289h70v-547zM446 726l-198 -107l-33 58l199 109z" />
    <glyph glyph-name="ucircumflex" unicode="&#xfb;" horiz-adv-x="608" 
d="M541 0h-66v85h-2c-32 -67 -103 -98 -175 -98c-71 0 -143 25 -188 82c-39 49 -48 115 -48 176v302h70v-301c0 -113 41 -196 166 -196c46 0 82 12 116 44c48 46 57 100 57 164v289h70v-547zM481 639h-89l-86 73l-88 -73h-91l145 125h66z" />
    <glyph glyph-name="udieresis" unicode="&#xfc;" horiz-adv-x="608" 
d="M541 0h-66v85h-2c-32 -67 -103 -98 -175 -98c-71 0 -143 25 -188 82c-39 49 -48 115 -48 176v302h70v-301c0 -113 41 -196 166 -196c46 0 82 12 116 44c48 46 57 100 57 164v289h70v-547zM415 639h-74v126h74v-126zM267 639h-74v126h74v-126z" />
    <glyph glyph-name="ugrave" unicode="&#xf9;" horiz-adv-x="608" 
d="M541 0h-66v85h-2c-32 -67 -103 -98 -175 -98c-71 0 -143 25 -188 82c-39 49 -48 115 -48 176v302h70v-301c0 -113 41 -196 166 -196c46 0 82 12 116 44c48 46 57 100 57 164v289h70v-547zM395 677l-33 -58l-198 107l32 60z" />
    <glyph glyph-name="yacute" unicode="&#xfd;" horiz-adv-x="536" 
d="M523 547l-317 -739h-73l95 210l-213 529h74l174 -436l186 436h74zM410 726l-198 -107l-33 58l199 109z" />
    <glyph glyph-name="ydieresis" unicode="&#xff;" horiz-adv-x="536" 
d="M523 547l-317 -739h-73l95 210l-213 529h74l174 -436l186 436h74zM379 639h-74v126h74v-126zM231 639h-74v126h74v-126z" />
    <glyph glyph-name="zcaron" unicode="&#x17e;" horiz-adv-x="425" 
d="M415 0h-405v61l303 423h-293v63h377v-63l-300 -421h318v-63zM385 764l-143 -125h-67l-145 125h92l86 -73l88 73h89z" />
    <glyph glyph-name="oneeighth" unicode="&#x215b;" horiz-adv-x="666" 
d="M149 296h-60v390h-75v54h135v-444zM465 740l-333 -740h-60l333 740h60zM642 132c0 -76 -64 -139 -148 -139s-147 63 -148 139c0 51 29 93 72 115c-28 22 -45 54 -45 89c0 64 53 115 121 115s121 -51 121 -115c0 -35 -17 -67 -45 -89c43 -22 72 -64 72 -115zM582 130
c0 50 -35 88 -88 88s-88 -38 -88 -88c0 -46 36 -83 88 -83s88 37 88 83zM559 335c0 35 -26 63 -65 63s-65 -28 -65 -63c0 -38 27 -65 65 -65s65 27 65 65z" />
    <glyph glyph-name="threeeighths" unicode="&#x215c;" horiz-adv-x="815" 
d="M324 435c0 -83 -66 -146 -148 -146c-93 0 -150 64 -152 156h60c0 -60 36 -102 92 -102c54 0 88 38 88 91c0 40 -32 73 -70 82c-18 4 -38 4 -57 4v54h24c36 0 74 17 74 58c0 43 -31 61 -62 61c-42 0 -59 -39 -59 -75h-60c1 73 46 129 121 129c70 0 120 -50 120 -117
c0 -37 -14 -58 -41 -80c42 -26 70 -64 70 -115zM614 740l-333 -740h-60l333 740h60zM791 132c0 -76 -64 -139 -148 -139s-147 63 -148 139c0 51 29 93 72 115c-28 22 -45 54 -45 89c0 64 53 115 121 115s121 -51 121 -115c0 -35 -17 -67 -45 -89c43 -22 72 -64 72 -115z
M731 130c0 50 -35 88 -88 88s-88 -38 -88 -88c0 -46 36 -83 88 -83s88 37 88 83zM708 335c0 35 -26 63 -65 63s-65 -28 -65 -63c0 -38 27 -65 65 -65s65 27 65 65z" />
    <glyph glyph-name="fiveeighths" unicode="&#x215d;" horiz-adv-x="827" 
d="M340 448c0 -91 -65 -159 -156 -159c-75 0 -147 55 -157 146h60c8 -56 49 -92 98 -92c60 0 96 46 96 101c0 56 -37 104 -96 104c-29 0 -63 -11 -88 -43c-15 4 -30 8 -46 12l40 223h214v-54h-169l-19 -106c16 11 44 21 75 21c91 0 148 -71 148 -153zM626 740l-333 -740h-60
l333 740h60zM803 132c0 -76 -64 -139 -148 -139s-147 63 -148 139c0 51 29 93 72 115c-28 22 -45 54 -45 89c0 64 53 115 121 115s121 -51 121 -115c0 -35 -17 -67 -45 -89c43 -22 72 -64 72 -115zM743 130c0 50 -35 88 -88 88s-88 -38 -88 -88c0 -46 36 -83 88 -83
s88 37 88 83zM720 335c0 35 -26 63 -65 63s-65 -28 -65 -63c0 -38 27 -65 65 -65s65 27 65 65z" />
    <glyph glyph-name="seveneighths" unicode="&#x215e;" horiz-adv-x="689" 
d="M275 688l-177 -392h-63l179 390h-209v54h270v-52zM488 740l-333 -740h-60l333 740h60zM665 132c0 -76 -64 -139 -148 -139s-147 63 -148 139c0 51 29 93 72 115c-28 22 -45 54 -45 89c0 64 53 115 121 115s121 -51 121 -115c0 -35 -17 -67 -45 -89c43 -22 72 -64 72 -115
zM605 130c0 50 -35 88 -88 88s-88 -38 -88 -88c0 -46 36 -83 88 -83s88 37 88 83zM582 335c0 35 -26 63 -65 63s-65 -28 -65 -63c0 -38 27 -65 65 -65s65 27 65 65z" />
    <glyph glyph-name="onethird" unicode="&#x2153;" horiz-adv-x="658" 
d="M149 296h-60v390h-75v54h135v-444zM465 740l-333 -740h-60l333 740h60zM634 138c0 -83 -66 -146 -148 -146c-93 0 -150 64 -152 156h60c0 -60 36 -102 92 -102c54 0 88 38 88 91c0 40 -32 73 -70 82c-18 4 -38 4 -57 4v54h24c36 0 74 17 74 58c0 43 -31 61 -62 61
c-42 0 -59 -39 -59 -75h-60c1 73 46 129 121 129c70 0 120 -50 120 -117c0 -37 -14 -58 -41 -80c42 -26 70 -64 70 -115z" />
    <glyph glyph-name="twothirds" unicode="&#x2154;" horiz-adv-x="806" 
d="M331 608c0 -63 -39 -100 -82 -140l-129 -118h210v-54h-298v49l158 147c33 30 81 68 81 117c0 47 -41 84 -87 84c-65 0 -88 -48 -88 -107h-60v5c0 93 57 156 150 156c78 0 145 -59 145 -139zM612 740l-333 -740h-60l333 740h60zM782 137c0 -83 -66 -146 -148 -146
c-93 0 -150 64 -152 156h60c0 -60 36 -102 92 -102c54 0 88 38 88 91c0 40 -32 73 -70 82c-18 4 -38 4 -57 4v54h24c36 0 74 17 74 58c0 43 -31 61 -62 61c-42 0 -59 -39 -59 -75h-60c1 73 46 129 121 129c70 0 120 -50 120 -117c0 -37 -14 -58 -41 -80
c42 -26 70 -64 70 -115z" />
    <glyph glyph-name="uni00A0" unicode="&#xa0;" horiz-adv-x="277" 
 />
    <glyph glyph-name="uni00AD" unicode="&#xad;" horiz-adv-x="332" 
d="M302 248h-272v67h272v-67z" />
    <glyph glyph-name="two.superior" unicode="&#xb2;" horiz-adv-x="352" 
d="M321 733c0 -63 -39 -100 -82 -140l-129 -118h210v-54h-298v49l158 147c33 30 81 68 81 117c0 47 -41 84 -87 84c-65 0 -88 -48 -88 -107h-60v5c0 93 57 156 150 156c78 0 145 -59 145 -139z" />
    <glyph glyph-name="three.superior" unicode="&#xb3;" horiz-adv-x="348" 
d="M324 560c0 -83 -66 -146 -148 -146c-93 0 -150 64 -152 156h60c0 -60 36 -102 92 -102c54 0 88 38 88 91c0 40 -32 73 -70 82c-18 4 -38 4 -57 4v54h24c36 0 74 17 74 58c0 43 -31 61 -62 61c-42 0 -59 -39 -59 -75h-60c1 73 46 129 121 129c70 0 120 -50 120 -117
c0 -37 -14 -58 -41 -80c42 -26 70 -64 70 -115z" />
    <glyph glyph-name="one.superior" unicode="&#xb9;" horiz-adv-x="214" 
d="M149 421h-60v390h-75v54h135v-444z" />
    <glyph glyph-name="Amacron" unicode="&#x100;" horiz-adv-x="740" 
d="M729 0h-81l-107 249h-344l-108 -249h-77l316 740h83zM512 316l-142 340l-145 -340h287zM539 821h-338v67h338v-67z" />
    <glyph glyph-name="amacron" unicode="&#x101;" horiz-adv-x="683" 
d="M621 0h-70v96h-2c-48 -72 -128 -109 -213 -109c-164 0 -294 123 -294 288c0 164 133 286 294 286c86 0 166 -36 213 -110h2v96h70v-547zM555 273c0 122 -95 225 -219 225c-130 0 -224 -97 -224 -226c0 -128 96 -222 224 -222c124 0 219 101 219 223zM510 629h-338v67h338
v-67z" />
    <glyph glyph-name="Abreve" unicode="&#x102;" horiz-adv-x="740" 
d="M729 0h-81l-107 249h-344l-108 -249h-77l316 740h83zM512 316l-142 340l-145 -340h287zM545 906c-28 -77 -99 -103 -175 -103s-146 26 -174 103h65c25 -34 69 -46 109 -46s85 12 110 46h65z" />
    <glyph glyph-name="abreve" unicode="&#x103;" horiz-adv-x="683" 
d="M621 0h-70v96h-2c-48 -72 -128 -109 -213 -109c-164 0 -294 123 -294 288c0 164 133 286 294 286c86 0 166 -36 213 -110h2v96h70v-547zM555 273c0 122 -95 225 -219 225c-130 0 -224 -97 -224 -226c0 -128 96 -222 224 -222c124 0 219 101 219 223zM516 714
c-28 -77 -99 -103 -175 -103s-146 26 -174 103h65c25 -34 69 -46 109 -46s85 12 110 46h65z" />
    <glyph glyph-name="Aogonek" unicode="&#x104;" horiz-adv-x="740" 
d="M737 -182c-17 -6 -33 -9 -51 -9c-54 0 -104 31 -104 90c0 49 34 77 72 101h-6l-107 249h-344l-108 -249h-77l316 740h83l318 -740h-23c-30 -23 -75 -56 -75 -98c0 -32 29 -50 58 -50c16 0 33 4 48 10v-44zM512 316l-142 340l-145 -340h287z" />
    <glyph glyph-name="aogonek" unicode="&#x105;" horiz-adv-x="683" 
d="M648 -182c-17 -6 -33 -9 -51 -9c-54 0 -104 31 -104 90c0 49 34 77 72 101h-14v96h-2c-48 -72 -128 -109 -213 -109c-164 0 -294 123 -294 288c0 164 133 286 294 286c86 0 166 -36 213 -110h2v96h70v-547h-4c-30 -23 -75 -56 -75 -98c0 -32 29 -50 58 -50
c16 0 33 4 48 10v-44zM555 273c0 122 -95 225 -219 225c-130 0 -224 -97 -224 -226c0 -128 96 -222 224 -222c124 0 219 101 219 223z" />
    <glyph glyph-name="Cacute" unicode="&#x106;" horiz-adv-x="813" 
d="M771 194c-68 -125 -198 -207 -341 -207c-212 0 -387 168 -387 382c0 216 171 383 386 383c112 0 218 -48 292 -132c19 -21 36 -44 47 -70h-83c-57 85 -155 135 -257 135c-170 0 -311 -149 -311 -317c0 -166 145 -314 312 -314c107 0 196 56 259 140h83zM568 888
l-198 -107l-33 58l199 109z" />
    <glyph glyph-name="cacute" unicode="&#x107;" horiz-adv-x="647" 
d="M607 161c-56 -110 -145 -174 -272 -174c-161 0 -294 123 -294 286c0 161 134 288 294 288c119 0 227 -67 272 -179h-77c-38 72 -111 116 -193 116c-125 0 -226 -97 -226 -223c0 -127 99 -225 226 -225c81 0 155 38 193 111h77zM475 706l-198 -107l-33 58l199 109z" />
    <glyph glyph-name="Ccircumflex" unicode="&#x108;" horiz-adv-x="813" 
d="M771 194c-68 -125 -198 -207 -341 -207c-212 0 -387 168 -387 382c0 216 171 383 386 383c112 0 218 -48 292 -132c19 -21 36 -44 47 -70h-83c-57 85 -155 135 -257 135c-170 0 -311 -149 -311 -317c0 -166 145 -314 312 -314c107 0 196 56 259 140h83zM603 801h-89
l-86 73l-88 -73h-91l145 125h66z" />
    <glyph glyph-name="ccircumflex" unicode="&#x109;" horiz-adv-x="647" 
d="M607 161c-56 -110 -145 -174 -272 -174c-161 0 -294 123 -294 286c0 161 134 288 294 288c119 0 227 -67 272 -179h-77c-38 72 -111 116 -193 116c-125 0 -226 -97 -226 -223c0 -127 99 -225 226 -225c81 0 155 38 193 111h77zM510 609h-89l-86 73l-88 -73h-91l145 125
h66z" />
    <glyph glyph-name="Cdotaccent" unicode="&#x10a;" horiz-adv-x="813" 
d="M771 194c-68 -125 -198 -207 -341 -207c-212 0 -387 168 -387 382c0 216 171 383 386 383c112 0 218 -48 292 -132c19 -21 36 -44 47 -70h-83c-57 85 -155 135 -257 135c-170 0 -311 -149 -311 -317c0 -166 145 -314 312 -314c107 0 196 56 259 140h83zM463 801h-74v126
h74v-126z" />
    <glyph glyph-name="cdotaccent" unicode="&#x10b;" horiz-adv-x="647" 
d="M607 161c-56 -110 -145 -174 -272 -174c-161 0 -294 123 -294 286c0 161 134 288 294 288c119 0 227 -67 272 -179h-77c-38 72 -111 116 -193 116c-125 0 -226 -97 -226 -223c0 -127 99 -225 226 -225c81 0 155 38 193 111h77zM370 619h-74v126h74v-126z" />
    <glyph glyph-name="Ccaron" unicode="&#x10c;" horiz-adv-x="813" 
d="M771 194c-68 -125 -198 -207 -341 -207c-212 0 -387 168 -387 382c0 216 171 383 386 383c112 0 218 -48 292 -132c19 -21 36 -44 47 -70h-83c-57 85 -155 135 -257 135c-170 0 -311 -149 -311 -317c0 -166 145 -314 312 -314c107 0 196 56 259 140h83zM608 926
l-143 -125h-67l-145 125h92l86 -73l88 73h89z" />
    <glyph glyph-name="ccaron" unicode="&#x10d;" horiz-adv-x="647" 
d="M607 161c-56 -110 -145 -174 -272 -174c-161 0 -294 123 -294 286c0 161 134 288 294 288c119 0 227 -67 272 -179h-77c-38 72 -111 116 -193 116c-125 0 -226 -97 -226 -223c0 -127 99 -225 226 -225c81 0 155 38 193 111h77zM515 734l-143 -125h-67l-145 125h92l86 -73
l88 73h89z" />
    <glyph glyph-name="Dcaron" unicode="&#x10e;" horiz-adv-x="744" 
d="M699 368c0 -123 -65 -240 -168 -307c-67 -43 -163 -61 -241 -61h-216v740h216c79 0 174 -18 241 -61c105 -67 168 -187 168 -311zM625 371c0 97 -46 190 -126 245c-73 51 -157 57 -244 57h-107v-606h123c87 0 165 7 238 60c76 55 116 152 116 244zM484 926l-143 -125h-67
l-145 125h92l86 -73l88 73h89z" />
    <glyph glyph-name="dcaron" unicode="&#x10f;" horiz-adv-x="775" 
d="M618 0h-70v96h-2c-47 -70 -130 -109 -213 -109c-164 0 -294 123 -294 288c0 164 133 286 294 286c84 0 165 -38 213 -108h2v287h70v-740zM552 273c0 122 -95 225 -219 225c-130 0 -224 -97 -224 -226c0 -128 96 -222 224 -222c124 0 219 101 219 223zM800 740l-77 -169
h-74l77 169h74z" />
    <glyph glyph-name="Dcroat" unicode="&#x110;" horiz-adv-x="810" 
d="M759 368c0 -46 -11 -97 -28 -140c-66 -164 -211 -228 -381 -228h-216v347h-74v67h74v326h212c169 0 317 -65 384 -228c18 -45 29 -95 29 -144zM685 371c0 97 -46 190 -126 245c-73 51 -157 57 -244 57h-107v-259h210v-67h-210v-280h123c87 0 165 7 238 60
c76 55 116 152 116 244z" />
    <glyph glyph-name="dcroat" unicode="&#x111;" horiz-adv-x="685" 
d="M552 273c0 122 -95 225 -219 225c-130 0 -224 -97 -224 -226c0 -128 96 -222 224 -222c124 0 219 101 219 223zM618 604v-604h-70v96h-2c-47 -70 -130 -109 -213 -109c-164 0 -294 123 -294 288c0 164 133 286 294 286c84 0 165 -38 213 -108h2v151h-206v63h206v73h70
v-73h62v-63h-62z" />
    <glyph glyph-name="Emacron" unicode="&#x112;" horiz-adv-x="536" 
d="M475 0h-405v740h405v-67h-331v-266h320v-67h-320v-273h331v-67zM437 821h-338v67h338v-67z" />
    <glyph glyph-name="emacron" unicode="&#x113;" horiz-adv-x="650" 
d="M609 268c0 -7 -1 -13 -1 -20h-498c5 -108 105 -198 212 -198c84 0 166 48 196 129h74c-40 -114 -148 -192 -269 -192c-158 0 -285 129 -285 286c0 156 127 288 284 288c160 0 287 -135 287 -293zM537 311c-18 107 -104 187 -214 187c-109 0 -196 -80 -213 -187h427z
M494 629h-338v67h338v-67z" />
    <glyph glyph-name="Ebreve" unicode="&#x114;" horiz-adv-x="536" 
d="M475 0h-405v740h405v-67h-331v-266h320v-67h-320v-273h331v-67zM443 906c-28 -77 -99 -103 -175 -103s-146 26 -174 103h65c25 -34 69 -46 109 -46s85 12 110 46h65z" />
    <glyph glyph-name="ebreve" unicode="&#x115;" horiz-adv-x="650" 
d="M609 268c0 -7 -1 -13 -1 -20h-498c5 -108 105 -198 212 -198c84 0 166 48 196 129h74c-40 -114 -148 -192 -269 -192c-158 0 -285 129 -285 286c0 156 127 288 284 288c160 0 287 -135 287 -293zM537 311c-18 107 -104 187 -214 187c-109 0 -196 -80 -213 -187h427z
M500 714c-28 -77 -99 -103 -175 -103s-146 26 -174 103h65c25 -34 69 -46 109 -46s85 12 110 46h65z" />
    <glyph glyph-name="Edotaccent" unicode="&#x116;" horiz-adv-x="536" 
d="M475 0h-405v740h405v-67h-331v-266h320v-67h-320v-273h331v-67zM315 801h-74v126h74v-126z" />
    <glyph glyph-name="edotaccent" unicode="&#x117;" horiz-adv-x="650" 
d="M609 268c0 -7 -1 -13 -1 -20h-498c5 -108 105 -198 212 -198c84 0 166 48 196 129h74c-40 -114 -148 -192 -269 -192c-158 0 -285 129 -285 286c0 156 127 288 284 288c160 0 287 -135 287 -293zM537 311c-18 107 -104 187 -214 187c-109 0 -196 -80 -213 -187h427z
M362 619h-74v126h74v-126z" />
    <glyph glyph-name="Eogonek" unicode="&#x118;" horiz-adv-x="536" 
d="M473 -182c-17 -6 -33 -9 -51 -9c-54 0 -104 31 -104 90c0 49 34 77 72 101h-320v740h405v-67h-331v-266h320v-67h-320v-273h331v-67h-33c-30 -23 -75 -56 -75 -98c0 -32 29 -50 58 -50c16 0 33 4 48 10v-44z" />
    <glyph glyph-name="eogonek" unicode="&#x119;" horiz-adv-x="650" 
d="M433 -182c-17 -6 -33 -9 -51 -9c-54 0 -104 31 -104 90c0 41 23 67 52 88h-7c-158 0 -285 129 -285 286c0 156 127 288 284 288c160 0 287 -135 287 -293c0 -7 -1 -13 -1 -20h-498c5 -108 105 -198 212 -198c84 0 166 48 196 129h74c-32 -90 -105 -157 -194 -181
c-30 -23 -71 -55 -71 -96c0 -32 29 -50 58 -50c16 0 33 4 48 10v-44zM537 311c-18 107 -104 187 -214 187c-109 0 -196 -80 -213 -187h427z" />
    <glyph glyph-name="Ecaron" unicode="&#x11a;" horiz-adv-x="536" 
d="M475 0h-405v740h405v-67h-331v-266h320v-67h-320v-273h331v-67zM460 926l-143 -125h-67l-145 125h92l86 -73l88 73h89z" />
    <glyph glyph-name="ecaron" unicode="&#x11b;" horiz-adv-x="650" 
d="M609 268c0 -7 -1 -13 -1 -20h-498c5 -108 105 -198 212 -198c84 0 166 48 196 129h74c-40 -114 -148 -192 -269 -192c-158 0 -285 129 -285 286c0 156 127 288 284 288c160 0 287 -135 287 -293zM537 311c-18 107 -104 187 -214 187c-109 0 -196 -80 -213 -187h427z
M497 734l-143 -125h-67l-145 125h92l86 -73l88 73h89z" />
    <glyph glyph-name="Gcircumflex" unicode="&#x11c;" horiz-adv-x="872" 
d="M828 340c-16 -203 -190 -353 -391 -353c-210 0 -397 169 -397 383c0 216 184 383 396 383c115 0 226 -49 302 -136c19 -21 37 -47 48 -74h-86c-52 90 -161 143 -263 143c-175 0 -323 -140 -323 -317c0 -179 150 -315 326 -315c130 0 266 90 299 219h-413v67h502zM609 801
h-89l-86 73l-88 -73h-91l145 125h66z" />
    <glyph glyph-name="gcircumflex" unicode="&#x11d;" horiz-adv-x="673" 
d="M606 86c0 -72 -5 -140 -50 -200c-50 -66 -135 -101 -217 -101c-132 0 -242 71 -280 201h74c35 -88 110 -138 205 -138c123 0 198 82 198 204v48h-2c-40 -76 -128 -113 -211 -113c-158 0 -286 125 -286 284s126 290 286 290c86 0 164 -39 211 -112h2v98h70v-461zM540 273
c0 120 -94 225 -217 225s-216 -104 -216 -225c0 -120 93 -223 216 -223c121 0 217 103 217 223zM500 609h-89l-86 73l-88 -73h-91l145 125h66z" />
    <glyph glyph-name="Gbreve" unicode="&#x11e;" horiz-adv-x="872" 
d="M828 340c-16 -203 -190 -353 -391 -353c-210 0 -397 169 -397 383c0 216 184 383 396 383c115 0 226 -49 302 -136c19 -21 37 -47 48 -74h-86c-52 90 -161 143 -263 143c-175 0 -323 -140 -323 -317c0 -179 150 -315 326 -315c130 0 266 90 299 219h-413v67h502zM611 906
c-28 -77 -99 -103 -175 -103s-146 26 -174 103h65c25 -34 69 -46 109 -46s85 12 110 46h65z" />
    <glyph glyph-name="gbreve" unicode="&#x11f;" horiz-adv-x="673" 
d="M606 86c0 -72 -5 -140 -50 -200c-50 -66 -135 -101 -217 -101c-132 0 -242 71 -280 201h74c35 -88 110 -138 205 -138c123 0 198 82 198 204v48h-2c-40 -76 -128 -113 -211 -113c-158 0 -286 125 -286 284s126 290 286 290c86 0 164 -39 211 -112h2v98h70v-461zM540 273
c0 120 -94 225 -217 225s-216 -104 -216 -225c0 -120 93 -223 216 -223c121 0 217 103 217 223zM501 714c-28 -77 -99 -103 -175 -103s-146 26 -174 103h65c25 -34 69 -46 109 -46s85 12 110 46h65z" />
    <glyph glyph-name="Gdotaccent" unicode="&#x120;" horiz-adv-x="872" 
d="M828 340c-16 -203 -190 -353 -391 -353c-210 0 -397 169 -397 383c0 216 184 383 396 383c115 0 226 -49 302 -136c19 -21 37 -47 48 -74h-86c-52 90 -161 143 -263 143c-175 0 -323 -140 -323 -317c0 -179 150 -315 326 -315c130 0 266 90 299 219h-413v67h502zM473 801
h-74v126h74v-126z" />
    <glyph glyph-name="gdotaccent" unicode="&#x121;" horiz-adv-x="673" 
d="M606 86c0 -72 -5 -140 -50 -200c-50 -66 -135 -101 -217 -101c-132 0 -242 71 -280 201h74c35 -88 110 -138 205 -138c123 0 198 82 198 204v48h-2c-40 -76 -128 -113 -211 -113c-158 0 -286 125 -286 284s126 290 286 290c86 0 164 -39 211 -112h2v98h70v-461zM540 273
c0 120 -94 225 -217 225s-216 -104 -216 -225c0 -120 93 -223 216 -223c121 0 217 103 217 223zM363 619h-74v126h74v-126z" />
    <glyph glyph-name="Gcommaaccent" unicode="&#x122;" horiz-adv-x="872" 
d="M828 340c-16 -203 -190 -353 -391 -353c-210 0 -397 169 -397 383c0 216 184 383 396 383c115 0 226 -49 302 -136c19 -21 37 -47 48 -74h-86c-52 90 -161 143 -263 143c-175 0 -323 -140 -323 -317c0 -179 150 -315 326 -315c130 0 266 90 299 219h-413v67h502zM486 -53
l-77 -169h-74l77 169h74z" />
    <glyph glyph-name="gcommaaccent" unicode="&#x123;" horiz-adv-x="673" 
d="M606 86c0 -72 -5 -140 -50 -200c-50 -66 -135 -101 -217 -101c-132 0 -242 71 -280 201h74c35 -88 110 -138 205 -138c123 0 198 82 198 204v48h-2c-40 -76 -128 -113 -211 -113c-158 0 -286 125 -286 284s126 290 286 290c86 0 164 -39 211 -112h2v98h70v-461zM540 273
c0 120 -94 225 -217 225s-216 -104 -216 -225c0 -120 93 -223 216 -223c121 0 217 103 217 223zM419 765l-77 -169h-74l77 169h74z" />
    <glyph glyph-name="Hcircumflex" unicode="&#x124;" horiz-adv-x="683" 
d="M607 0h-74v347h-383v-347h-74v740h74v-326h383v326h74v-740zM518 801h-89l-86 73l-88 -73h-91l145 125h66z" />
    <glyph glyph-name="hcircumflex" unicode="&#x125;" horiz-adv-x="610" 
d="M543 0h-70v301c0 52 -13 113 -52 150c-32 30 -75 47 -119 47s-87 -17 -119 -47c-38 -36 -51 -95 -51 -145v-306h-70v740h70v-263h2c36 56 103 84 168 84c157 0 241 -109 241 -260v-301zM337 801h-89l-86 73l-88 -73h-91l145 125h66z" />
    <glyph glyph-name="Hbar" unicode="&#x126;" horiz-adv-x="683" 
d="M607 0h-74v347h-383v-347h-74v527h-76v67h76v146h74v-146h383v146h74v-146h76v-67h-76v-527zM150 414h383v113h-383v-113z" />
    <glyph glyph-name="hbar" unicode="&#x127;" horiz-adv-x="610" 
d="M543 0h-70v301c0 52 -13 113 -52 150c-32 30 -75 47 -119 47s-87 -17 -119 -47c-38 -36 -51 -95 -51 -145v-306h-70v604h-62v63h62v73h70v-73h206v-63h-206v-127h2c36 56 103 84 168 84c157 0 241 -109 241 -260v-301z" />
    <glyph glyph-name="Itilde" unicode="&#x128;" horiz-adv-x="226" 
d="M150 0h-74v740h74v-740zM286 842c-27 -20 -64 -39 -98 -39c-60 0 -99 41 -145 41c-25 0 -49 -13 -67 -30l-35 50c29 27 64 42 104 42c58 0 96 -41 142 -41c24 0 43 14 63 26z" />
    <glyph glyph-name="itilde" unicode="&#x129;" horiz-adv-x="200" 
d="M135 0h-70v547h70v-547zM273 660c-27 -20 -64 -39 -98 -39c-60 0 -99 41 -145 41c-25 0 -49 -13 -67 -30l-35 50c29 27 64 42 104 42c58 0 96 -41 142 -41c24 0 43 14 63 26z" />
    <glyph glyph-name="Imacron" unicode="&#x12a;" horiz-adv-x="226" 
d="M150 0h-74v740h74v-740zM282 821h-338v67h338v-67z" />
    <glyph glyph-name="imacron" unicode="&#x12b;" horiz-adv-x="200" 
d="M135 0h-70v547h70v-547zM269 629h-338v67h338v-67z" />
    <glyph glyph-name="Ibreve" unicode="&#x12c;" horiz-adv-x="226" 
d="M150 0h-74v740h74v-740zM288 906c-28 -77 -99 -103 -175 -103s-146 26 -174 103h65c25 -34 69 -46 109 -46s85 12 110 46h65z" />
    <glyph glyph-name="ibreve" unicode="&#x12d;" horiz-adv-x="200" 
d="M135 0h-70v547h70v-547zM275 714c-28 -77 -99 -103 -175 -103s-146 26 -174 103h65c25 -34 69 -46 109 -46s85 12 110 46h65z" />
    <glyph glyph-name="Iogonek" unicode="&#x12e;" horiz-adv-x="226" 
d="M177 -182c-17 -6 -33 -9 -51 -9c-54 0 -104 31 -104 90c0 49 34 77 72 101h-18v740h74v-740h-4c-30 -23 -75 -56 -75 -98c0 -32 29 -50 58 -50c16 0 33 4 48 10v-44z" />
    <glyph glyph-name="iogonek" unicode="&#x12f;" horiz-adv-x="200" 
d="M164 -182c-17 -6 -33 -9 -51 -9c-54 0 -104 31 -104 90c0 49 34 77 72 101h-16v547h70v-547h-2c-30 -23 -75 -56 -75 -98c0 -32 29 -50 58 -50c16 0 33 4 48 10v-44zM135 614h-70v126h70v-126z" />
    <glyph glyph-name="Idotaccent" unicode="&#x130;" horiz-adv-x="226" 
d="M150 0h-74v740h74v-740zM150 801h-74v126h74v-126z" />
    <glyph glyph-name="IJ" unicode="&#x132;" horiz-adv-x="708" 
d="M150 0h-74v740h74v-740zM628 235c0 -46 0 -98 -19 -141c-30 -69 -103 -107 -176 -107c-112 0 -195 77 -201 189h73c5 -71 57 -122 129 -122c110 0 120 92 120 178v508h74v-505z" />
    <glyph glyph-name="ij" unicode="&#x133;" horiz-adv-x="403" 
d="M135 614h-70v126h70v-126zM135 0h-70v547h70v-547zM337 614h-70v126h70v-126zM337 26c0 -67 -6 -127 -60 -174c-39 -34 -71 -43 -121 -44v69c99 3 111 79 111 161v509h70v-521z" />
    <glyph glyph-name="Jcircumflex" unicode="&#x134;" horiz-adv-x="482" 
d="M402 235c0 -46 0 -98 -19 -141c-30 -69 -103 -107 -176 -107c-112 0 -195 77 -201 189h73c5 -71 57 -122 129 -122c110 0 120 92 120 178v508h74v-505zM488 802h-89l-86 73l-88 -73h-91l145 125h66z" />
    <glyph glyph-name="jcircumflex" unicode="&#x135;" horiz-adv-x="203" 
d="M137 26c0 -67 -6 -127 -60 -174c-39 -34 -71 -43 -121 -44v69c99 3 111 79 111 161v509h70v-521zM283 609h-89l-86 73l-88 -73h-91l145 125h66z" />
    <glyph glyph-name="Kcommaaccent" unicode="&#x136;" horiz-adv-x="591" 
d="M591 0h-93l-247 321l-96 -118v-203h-74v740h74v-425h2l339 425h95l-293 -361zM355 -53l-77 -169h-74l77 169h74z" />
    <glyph glyph-name="kcommaaccent" unicode="&#x137;" horiz-adv-x="502" 
d="M498 0h-90l-180 216l-88 -112v-104h-70v740h70v-527h2l255 334h90l-216 -276zM311 -53l-77 -169h-74l77 169h74z" />
    <glyph glyph-name="kgreenlandic" unicode="&#x138;" horiz-adv-x="506" 
d="M498 0h-90l-202 228l-66 -71v-157h-70v547h70v-296h2l270 296h90l-249 -268z" />
    <glyph glyph-name="Lacute" unicode="&#x139;" horiz-adv-x="462" 
d="M462 0h-380v740h74v-673h306v-67zM263 888l-198 -107l-33 58l199 109z" />
    <glyph glyph-name="lacute" unicode="&#x13a;" horiz-adv-x="200" 
d="M135 0h-70v740h70v-740zM232 888l-198 -107l-33 58l199 109z" />
    <glyph glyph-name="Lcommaaccent" unicode="&#x13b;" horiz-adv-x="462" 
d="M462 0h-380v740h74v-673h306v-67zM301 -53l-77 -169h-74l77 169h74z" />
    <glyph glyph-name="lcommaaccent" unicode="&#x13c;" horiz-adv-x="200" 
d="M135 0h-70v740h70v-740zM150 -53l-77 -169h-74l77 169h74z" />
    <glyph glyph-name="Lcaron" unicode="&#x13d;" horiz-adv-x="462" 
d="M462 0h-380v740h74v-673h306v-67zM418 740l-77 -169h-74l77 169h74z" />
    <glyph glyph-name="lcaron" unicode="&#x13e;" horiz-adv-x="299" 
d="M135 0h-70v740h70v-740zM324 740l-77 -169h-74l77 169h74z" />
    <glyph glyph-name="Ldot" unicode="&#x13f;" horiz-adv-x="492" 
d="M462 0h-380v740h74v-673h306v-67zM388 333h-74v126h74v-126z" />
    <glyph glyph-name="ldot" unicode="&#x140;" horiz-adv-x="274" 
d="M135 0h-70v740h70v-740zM274 319h-74v126h74v-126z" />
    <glyph glyph-name="Nacute" unicode="&#x143;" horiz-adv-x="740" 
d="M664 0h-74l-439 651h-2v-651h-74v740h100l413 -614h2v614h74v-740zM522 888l-198 -107l-33 58l199 109z" />
    <glyph glyph-name="nacute" unicode="&#x144;" horiz-adv-x="610" 
d="M546 0h-70v301c0 52 -13 113 -52 150c-32 30 -75 47 -119 47s-87 -17 -119 -47c-38 -36 -51 -95 -51 -145v-306h-70v547h70v-70h2c36 56 103 84 168 84c157 0 241 -109 241 -260v-301zM447 706l-198 -107l-33 58l199 109z" />
    <glyph glyph-name="Ncommaaccent" unicode="&#x145;" horiz-adv-x="740" 
d="M664 0h-74l-439 651h-2v-651h-74v740h100l413 -614h2v614h74v-740zM420 -53l-77 -169h-74l77 169h74z" />
    <glyph glyph-name="ncommaaccent" unicode="&#x146;" horiz-adv-x="610" 
d="M546 0h-70v301c0 52 -13 113 -52 150c-32 30 -75 47 -119 47s-87 -17 -119 -47c-38 -36 -51 -95 -51 -145v-306h-70v547h70v-70h2c36 56 103 84 168 84c157 0 241 -109 241 -260v-301zM355 -53l-77 -169h-74l77 169h74z" />
    <glyph glyph-name="Ncaron" unicode="&#x147;" horiz-adv-x="740" 
d="M664 0h-74l-439 651h-2v-651h-74v740h100l413 -614h2v614h74v-740zM552 926l-143 -125h-67l-145 125h92l86 -73l88 73h89z" />
    <glyph glyph-name="ncaron" unicode="&#x148;" horiz-adv-x="610" 
d="M546 0h-70v301c0 52 -13 113 -52 150c-32 30 -75 47 -119 47s-87 -17 -119 -47c-38 -36 -51 -95 -51 -145v-306h-70v547h70v-70h2c36 56 103 84 168 84c157 0 241 -109 241 -260v-301zM477 734l-143 -125h-67l-145 125h92l86 -73l88 73h89z" />
    <glyph glyph-name="napostrophe" unicode="&#x149;" horiz-adv-x="620" 
d="M556 0h-70v301c0 52 -13 113 -52 150c-32 30 -75 47 -119 47s-87 -17 -119 -47c-38 -36 -51 -95 -51 -145v-306h-70v547h70v-70h2c36 56 103 84 168 84c157 0 241 -109 241 -260v-301zM86 740l-88 -194h-74l88 194h74z" />
    <glyph glyph-name="Eng" unicode="&#x14a;" horiz-adv-x="740" 
d="M664 26c0 -67 -6 -127 -60 -174c-39 -34 -73 -44 -125 -44v73c81 3 104 55 109 119l-437 651h-2v-651h-74v740h100l413 -617h2v617h74v-714z" />
    <glyph glyph-name="eng" unicode="&#x14b;" horiz-adv-x="610" 
d="M546 26c0 -67 -6 -127 -60 -174c-39 -34 -71 -43 -121 -44v69c99 3 111 79 111 161v263c0 52 -13 113 -52 150c-32 30 -75 47 -119 47s-87 -17 -119 -47c-38 -36 -51 -95 -51 -145v-306h-70v547h70v-70h2c36 56 103 84 168 84c157 0 241 -109 241 -260v-275z" />
    <glyph glyph-name="Omacron" unicode="&#x14c;" horiz-adv-x="869" 
d="M826 370c0 -214 -181 -383 -392 -383c-207 0 -391 168 -391 379c0 216 176 387 391 387c212 0 392 -169 392 -383zM752 369c0 174 -144 317 -318 317c-176 0 -317 -145 -317 -320c0 -171 147 -312 317 -312c173 0 318 141 318 315zM603 821h-338v67h338v-67z" />
    <glyph glyph-name="omacron" unicode="&#x14d;" horiz-adv-x="655" 
d="M614 274c0 -157 -130 -287 -287 -287c-154 0 -285 129 -285 283c0 158 126 291 285 291c156 0 287 -131 287 -287zM544 277c0 119 -96 221 -216 221c-124 0 -216 -106 -216 -227c0 -119 95 -221 216 -221c126 0 216 104 216 227zM496 629h-338v67h338v-67z" />
    <glyph glyph-name="Obreve" unicode="&#x14e;" horiz-adv-x="869" 
d="M826 370c0 -214 -181 -383 -392 -383c-207 0 -391 168 -391 379c0 216 176 387 391 387c212 0 392 -169 392 -383zM752 369c0 174 -144 317 -318 317c-176 0 -317 -145 -317 -320c0 -171 147 -312 317 -312c173 0 318 141 318 315zM609 906c-28 -77 -99 -103 -175 -103
s-146 26 -174 103h65c25 -34 69 -46 109 -46s85 12 110 46h65z" />
    <glyph glyph-name="obreve" unicode="&#x14f;" horiz-adv-x="655" 
d="M614 274c0 -157 -130 -287 -287 -287c-154 0 -285 129 -285 283c0 158 126 291 285 291c156 0 287 -131 287 -287zM544 277c0 119 -96 221 -216 221c-124 0 -216 -106 -216 -227c0 -119 95 -221 216 -221c126 0 216 104 216 227zM502 714c-28 -77 -99 -103 -175 -103
s-146 26 -174 103h65c25 -34 69 -46 109 -46s85 12 110 46h65z" />
    <glyph glyph-name="Ohungarumlaut" unicode="&#x150;" horiz-adv-x="869" 
d="M826 370c0 -214 -181 -383 -392 -383c-207 0 -391 168 -391 379c0 216 176 387 391 387c212 0 392 -169 392 -383zM752 369c0 174 -144 317 -318 317c-176 0 -317 -145 -317 -320c0 -171 147 -312 317 -312c173 0 318 141 318 315zM664 912l-164 -135l-38 46l162 135z
M489 912l-164 -135l-38 46l161 135z" />
    <glyph glyph-name="ohungarumlaut" unicode="&#x151;" horiz-adv-x="655" 
d="M614 274c0 -157 -130 -287 -287 -287c-154 0 -285 129 -285 283c0 158 126 291 285 291c156 0 287 -131 287 -287zM544 277c0 119 -96 221 -216 221c-124 0 -216 -106 -216 -227c0 -119 95 -221 216 -221c126 0 216 104 216 227zM557 730l-164 -135l-38 46l162 135z
M382 730l-164 -135l-38 46l161 135z" />
    <glyph glyph-name="Racute" unicode="&#x154;" horiz-adv-x="607" 
d="M572 501c0 -126 -96 -217 -220 -225l209 -276h-93l-251 335c46 0 114 -3 159 11c72 22 122 80 122 157c0 56 -31 115 -81 142c-46 25 -92 28 -144 28h-129v-673h-74v740h188c56 0 130 -3 182 -28c83 -40 132 -119 132 -211zM435 888l-198 -107l-33 58l199 109z" />
    <glyph glyph-name="racute" unicode="&#x155;" horiz-adv-x="301" 
d="M291 487c-96 -8 -156 -69 -156 -167v-320h-70v547h70v-79h2c30 70 83 88 154 93v-74zM322 706l-198 -107l-33 58l199 109z" />
    <glyph glyph-name="Rcommaaccent" unicode="&#x156;" horiz-adv-x="607" 
d="M572 501c0 -126 -96 -217 -220 -225l209 -276h-93l-251 335c46 0 114 -3 159 11c72 22 122 80 122 157c0 56 -31 115 -81 142c-46 25 -92 28 -144 28h-129v-673h-74v740h188c56 0 130 -3 182 -28c83 -40 132 -119 132 -211zM343 -53l-77 -169h-74l77 169h74z" />
    <glyph glyph-name="rcommaaccent" unicode="&#x157;" horiz-adv-x="301" 
d="M291 487c-96 -8 -156 -69 -156 -167v-320h-70v547h70v-79h2c30 70 83 88 154 93v-74zM160 -53l-77 -169h-74l77 169h74z" />
    <glyph glyph-name="Rcaron" unicode="&#x158;" horiz-adv-x="607" 
d="M572 501c0 -126 -96 -217 -220 -225l209 -276h-93l-251 335c46 0 114 -3 159 11c72 22 122 80 122 157c0 56 -31 115 -81 142c-46 25 -92 28 -144 28h-129v-673h-74v740h188c56 0 130 -3 182 -28c83 -40 132 -119 132 -211zM455 926l-143 -125h-67l-145 125h92l86 -73
l88 73h89z" />
    <glyph glyph-name="rcaron" unicode="&#x159;" horiz-adv-x="301" 
d="M291 487c-96 -8 -156 -69 -156 -167v-320h-70v547h70v-79h2c30 70 83 88 154 93v-74zM352 734l-143 -125h-67l-145 125h92l86 -73l88 73h89z" />
    <glyph glyph-name="Sacute" unicode="&#x15a;" horiz-adv-x="498" 
d="M473 204c0 -123 -101 -217 -223 -217c-131 0 -226 87 -228 220h74c4 -91 61 -153 154 -153c82 0 149 64 149 147c0 100 -84 134 -165 158c-105 31 -192 67 -192 195c0 117 94 199 208 199s205 -86 205 -201h-74c0 72 -58 134 -131 134c-74 0 -134 -54 -134 -129
c0 -99 101 -116 176 -139c106 -32 181 -99 181 -214zM401 888l-198 -107l-33 58l199 109z" />
    <glyph glyph-name="sacute" unicode="&#x15b;" horiz-adv-x="388" 
d="M364 154c0 -105 -69 -167 -172 -167c-98 0 -168 71 -168 169v6h70c1 -63 31 -112 98 -112c62 0 102 35 102 98c0 145 -254 78 -254 261c0 90 67 152 156 152c84 0 149 -65 149 -149h-70c-3 47 -32 86 -82 86c-47 0 -83 -35 -83 -82c0 -125 254 -60 254 -262zM336 706
l-198 -107l-33 58l199 109z" />
    <glyph glyph-name="Scircumflex" unicode="&#x15c;" horiz-adv-x="498" 
d="M473 204c0 -123 -101 -217 -223 -217c-131 0 -226 87 -228 220h74c4 -91 61 -153 154 -153c82 0 149 64 149 147c0 100 -84 134 -165 158c-105 31 -192 67 -192 195c0 117 94 199 208 199s205 -86 205 -201h-74c0 72 -58 134 -131 134c-74 0 -134 -54 -134 -129
c0 -99 101 -116 176 -139c106 -32 181 -99 181 -214zM426 801h-89l-86 73l-88 -73h-91l145 125h66z" />
    <glyph glyph-name="scircumflex" unicode="&#x15d;" horiz-adv-x="388" 
d="M364 154c0 -105 -69 -167 -172 -167c-98 0 -168 71 -168 169v6h70c1 -63 31 -112 98 -112c62 0 102 35 102 98c0 145 -254 78 -254 261c0 90 67 152 156 152c84 0 149 -65 149 -149h-70c-3 47 -32 86 -82 86c-47 0 -83 -35 -83 -82c0 -125 254 -60 254 -262zM371 609h-89
l-86 73l-88 -73h-91l145 125h66z" />
    <glyph glyph-name="Scedilla" unicode="&#x15e;" horiz-adv-x="498" 
d="M331 -138c0 -53 -42 -84 -92 -84c-46 0 -76 33 -83 77l42 2c4 -23 22 -42 46 -42c30 0 46 24 46 52c0 31 -18 47 -48 47c-18 0 -29 -6 -40 -19l-36 21l39 75c-107 17 -181 98 -183 216h74c4 -91 61 -153 154 -153c82 0 149 64 149 147c0 100 -84 134 -165 158
c-105 31 -192 67 -192 195c0 117 94 199 208 199s205 -86 205 -201h-74c0 72 -58 134 -131 134c-74 0 -134 -54 -134 -129c0 -99 101 -116 176 -139c106 -32 181 -99 181 -214c0 -123 -101 -217 -223 -217h-3l-21 -43c11 3 21 4 33 4c47 0 72 -43 72 -86z" />
    <glyph glyph-name="scedilla" unicode="&#x15f;" horiz-adv-x="388" 
d="M286 -138c0 -53 -42 -84 -92 -84c-46 0 -76 33 -83 77l42 2c4 -23 22 -42 46 -42c30 0 46 24 46 52c0 31 -18 47 -48 47c-18 0 -29 -6 -40 -19l-36 21l39 74c-81 13 -136 79 -136 166v6h70c1 -63 31 -112 98 -112c62 0 102 35 102 98c0 145 -254 78 -254 261
c0 90 67 152 156 152c84 0 149 -65 149 -149h-70c-3 47 -32 86 -82 86c-47 0 -83 -35 -83 -82c0 -125 254 -60 254 -262c0 -102 -65 -163 -162 -167l-21 -43c11 3 21 4 33 4c47 0 72 -43 72 -86z" />
    <glyph glyph-name="Tcedilla" unicode="&#x162;" horiz-adv-x="426" 
d="M419 673h-169v-673h-74v673h-170v67h413v-67zM263 -53l-77 -169h-74l77 169h74z" />
    <glyph glyph-name="tcedilla" unicode="&#x163;" horiz-adv-x="339" 
d="M330 484h-131v-484h-70v484h-115v63h115v193h70v-193h131v-63zM219 -53l-77 -169h-74l77 169h74z" />
    <glyph glyph-name="Tcaron" unicode="&#x164;" horiz-adv-x="426" 
d="M419 673h-169v-673h-74v673h-170v67h413v-67zM385 926l-143 -125h-67l-145 125h92l86 -73l88 73h89z" />
    <glyph glyph-name="tcaron" unicode="&#x165;" horiz-adv-x="365" 
d="M330 484h-131v-484h-70v484h-115v63h115v193h70v-193h131v-63zM390 785l-77 -169h-74l77 169h74z" />
    <glyph glyph-name="Tbar" unicode="&#x166;" horiz-adv-x="426" 
d="M389 347h-139v-347h-74v347h-140v67h140v259h-170v67h413v-67h-169v-259h139v-67z" />
    <glyph glyph-name="tbar" unicode="&#x167;" horiz-adv-x="339" 
d="M310 259h-111v-259h-70v259h-95v63h95v162h-115v63h115v193h70v-193h131v-63h-131v-162h111v-63z" />
    <glyph glyph-name="Utilde" unicode="&#x168;" horiz-adv-x="655" 
d="M579 279c0 -50 -7 -109 -28 -154c-42 -90 -126 -138 -224 -138s-182 48 -224 138c-21 45 -28 104 -28 154v461h74v-461c0 -40 5 -98 25 -134c33 -60 85 -91 153 -91s120 31 153 91c20 36 25 94 25 134v461h74v-461zM500 842c-27 -20 -64 -39 -98 -39
c-60 0 -99 41 -145 41c-25 0 -49 -13 -67 -30l-35 50c29 27 64 42 104 42c58 0 96 -41 142 -41c24 0 43 14 63 26z" />
    <glyph glyph-name="utilde" unicode="&#x169;" horiz-adv-x="608" 
d="M541 0h-66v85h-2c-32 -67 -103 -98 -175 -98c-71 0 -143 25 -188 82c-39 49 -48 115 -48 176v302h70v-301c0 -113 41 -196 166 -196c46 0 82 12 116 44c48 46 57 100 57 164v289h70v-547zM477 660c-27 -20 -64 -39 -98 -39c-60 0 -99 41 -145 41c-25 0 -49 -13 -67 -30
l-35 50c29 27 64 42 104 42c58 0 96 -41 142 -41c24 0 43 14 63 26z" />
    <glyph glyph-name="Umacron" unicode="&#x16a;" horiz-adv-x="655" 
d="M579 279c0 -50 -7 -109 -28 -154c-42 -90 -126 -138 -224 -138s-182 48 -224 138c-21 45 -28 104 -28 154v461h74v-461c0 -40 5 -98 25 -134c33 -60 85 -91 153 -91s120 31 153 91c20 36 25 94 25 134v461h74v-461zM496 821h-338v67h338v-67z" />
    <glyph glyph-name="umacron" unicode="&#x16b;" horiz-adv-x="608" 
d="M541 0h-66v85h-2c-32 -67 -103 -98 -175 -98c-71 0 -143 25 -188 82c-39 49 -48 115 -48 176v302h70v-301c0 -113 41 -196 166 -196c46 0 82 12 116 44c48 46 57 100 57 164v289h70v-547zM473 629h-338v67h338v-67z" />
    <glyph glyph-name="Ubreve" unicode="&#x16c;" horiz-adv-x="655" 
d="M579 279c0 -50 -7 -109 -28 -154c-42 -90 -126 -138 -224 -138s-182 48 -224 138c-21 45 -28 104 -28 154v461h74v-461c0 -40 5 -98 25 -134c33 -60 85 -91 153 -91s120 31 153 91c20 36 25 94 25 134v461h74v-461zM502 906c-28 -77 -99 -103 -175 -103s-146 26 -174 103
h65c25 -34 69 -46 109 -46s85 12 110 46h65z" />
    <glyph glyph-name="ubreve" unicode="&#x16d;" horiz-adv-x="608" 
d="M541 0h-66v85h-2c-32 -67 -103 -98 -175 -98c-71 0 -143 25 -188 82c-39 49 -48 115 -48 176v302h70v-301c0 -113 41 -196 166 -196c46 0 82 12 116 44c48 46 57 100 57 164v289h70v-547zM479 714c-28 -77 -99 -103 -175 -103s-146 26 -174 103h65c25 -34 69 -46 109 -46
s85 12 110 46h65z" />
    <glyph glyph-name="Uring" unicode="&#x16e;" horiz-adv-x="655" 
d="M579 279c0 -50 -7 -109 -28 -154c-42 -90 -126 -138 -224 -138s-182 48 -224 138c-21 45 -28 104 -28 154v461h74v-461c0 -40 5 -98 25 -134c33 -60 85 -91 153 -91s120 31 153 91c20 36 25 94 25 134v461h74v-461zM430 875c0 -57 -47 -103 -104 -103
c-56 0 -103 47 -103 103s46 104 103 104c58 0 104 -46 104 -104zM378 875c0 29 -23 52 -52 52c-28 0 -51 -24 -51 -52s23 -51 51 -51s52 22 52 51z" />
    <glyph glyph-name="uring" unicode="&#x16f;" horiz-adv-x="608" 
d="M541 0h-66v85h-2c-32 -67 -103 -98 -175 -98c-71 0 -143 25 -188 82c-39 49 -48 115 -48 176v302h70v-301c0 -113 41 -196 166 -196c46 0 82 12 116 44c48 46 57 100 57 164v289h70v-547zM407 703c0 -57 -47 -103 -104 -103c-56 0 -103 47 -103 103s46 104 103 104
c58 0 104 -46 104 -104zM355 703c0 29 -23 52 -52 52c-28 0 -51 -24 -51 -52s23 -51 51 -51s52 22 52 51z" />
    <glyph glyph-name="Uhungarumlaut" unicode="&#x170;" horiz-adv-x="655" 
d="M579 279c0 -50 -7 -109 -28 -154c-42 -90 -126 -138 -224 -138s-182 48 -224 138c-21 45 -28 104 -28 154v461h74v-461c0 -40 5 -98 25 -134c33 -60 85 -91 153 -91s120 31 153 91c20 36 25 94 25 134v461h74v-461zM567 912l-164 -135l-38 46l162 135zM392 912l-164 -135
l-38 46l161 135z" />
    <glyph glyph-name="uhungarumlaut" unicode="&#x171;" horiz-adv-x="608" 
d="M541 0h-66v85h-2c-32 -67 -103 -98 -175 -98c-71 0 -143 25 -188 82c-39 49 -48 115 -48 176v302h70v-301c0 -113 41 -196 166 -196c46 0 82 12 116 44c48 46 57 100 57 164v289h70v-547zM544 730l-164 -135l-38 46l162 135zM369 730l-164 -135l-38 46l161 135z" />
    <glyph glyph-name="Uogonek" unicode="&#x172;" horiz-adv-x="655" 
d="M425 -182c-17 -6 -33 -9 -51 -9c-54 0 -104 31 -104 90c0 41 23 67 52 88c-96 2 -178 49 -219 138c-21 45 -28 104 -28 154v461h74v-461c0 -40 5 -98 25 -134c33 -60 85 -91 153 -91s120 31 153 91c20 36 25 94 25 134v461h74v-461c0 -50 -7 -109 -28 -154
c-34 -72 -94 -118 -167 -132c-29 -23 -65 -53 -65 -91c0 -32 29 -50 58 -50c16 0 33 4 48 10v-44z" />
    <glyph glyph-name="uogonek" unicode="&#x173;" horiz-adv-x="608" 
d="M566 -182c-17 -6 -33 -9 -51 -9c-54 0 -104 31 -104 90c0 49 34 77 72 101h-8v85h-2c-32 -67 -103 -98 -175 -98c-71 0 -143 25 -188 82c-39 49 -48 115 -48 176v302h70v-301c0 -113 41 -196 166 -196c46 0 82 12 116 44c48 46 57 100 57 164v289h70v-547h-6
c-30 -23 -75 -56 -75 -98c0 -32 29 -50 58 -50c16 0 33 4 48 10v-44z" />
    <glyph glyph-name="Wcircumflex" unicode="&#x174;" horiz-adv-x="960" 
d="M950 740l-212 -740h-94l-163 607h-2l-162 -607h-95l-211 740h76l181 -645h2l176 645h69l177 -644h2l181 644h75zM657 801h-89l-86 73l-88 -73h-91l145 125h66z" />
    <glyph glyph-name="wcircumflex" unicode="&#x175;" horiz-adv-x="831" 
d="M820 547l-209 -547h-79l-116 364h-2l-114 -364h-79l-208 547h73l172 -458h2l125 392h61l126 -392h2l174 458h72zM592 609h-89l-86 73l-88 -73h-91l145 125h66z" />
    <glyph glyph-name="Ycircumflex" unicode="&#x176;" horiz-adv-x="592" 
d="M592 740l-260 -493v-247h-74v247l-257 493h82l211 -415l217 415h81zM473 801h-89l-86 73l-88 -73h-91l145 125h66z" />
    <glyph glyph-name="ycircumflex" unicode="&#x177;" horiz-adv-x="536" 
d="M523 547l-317 -739h-73l95 210l-213 529h74l174 -436l186 436h74zM445 609h-89l-86 73l-88 -73h-91l145 125h66z" />
    <glyph glyph-name="Zacute" unicode="&#x179;" horiz-adv-x="480" 
d="M470 0h-458v67l364 606h-353v67h436v-67l-363 -606h374v-67zM382 888l-198 -107l-33 58l199 109z" />
    <glyph glyph-name="zacute" unicode="&#x17a;" horiz-adv-x="425" 
d="M415 0h-405v61l303 423h-293v63h377v-63l-300 -421h318v-63zM354 706l-198 -107l-33 58l199 109z" />
    <glyph glyph-name="Zdotaccent" unicode="&#x17b;" horiz-adv-x="480" 
d="M470 0h-458v67l364 606h-353v67h436v-67l-363 -606h374v-67zM277 801h-74v126h74v-126z" />
    <glyph glyph-name="zdotaccent" unicode="&#x17c;" horiz-adv-x="425" 
d="M415 0h-405v61l303 423h-293v63h377v-63l-300 -421h318v-63zM249 619h-74v126h74v-126z" />
    <glyph glyph-name="AEacute" unicode="&#x1fc;" horiz-adv-x="992" 
d="M907 0h-391v250h-273l-174 -250h-89l515 740h412v-67h-317v-266h306v-67h-306v-273h317v-67zM516 317v328h-2l-224 -328h226zM721 889l-198 -107l-33 58l199 109z" />
    <glyph glyph-name="aeacute" unicode="&#x1fd;" horiz-adv-x="1157" 
d="M1114 267c0 -7 -1 -13 -1 -20h-495c10 -110 102 -197 213 -197c81 0 166 49 194 128h70c-34 -113 -148 -191 -264 -191c-83 0 -169 41 -214 112h-2v-99h-70v99h-2c-51 -77 -126 -112 -217 -112c-120 0 -222 65 -269 176c-14 34 -23 72 -23 109s9 75 23 109
c47 112 148 180 270 180c89 0 171 -35 216 -115h2v101h70v-101h2c39 73 133 115 213 115c161 0 284 -137 284 -294zM1043 310c-17 107 -102 188 -212 188s-196 -81 -213 -188h425zM548 272c0 126 -93 226 -221 226c-125 0 -223 -104 -223 -228c0 -122 101 -220 222 -220
c126 0 222 96 222 222zM724 706l-198 -107l-33 58l199 109z" />
    <glyph glyph-name="Oslashacute" unicode="&#x1fe;" horiz-adv-x="868" 
d="M826 370c0 -214 -181 -383 -392 -383c-73 0 -139 19 -201 56l-94 -126l-55 40l93 126c-83 73 -134 176 -134 287c0 213 180 383 391 383c75 0 140 -19 204 -57l92 123l55 -40l-92 -123c84 -74 133 -174 133 -286zM752 369c0 90 -37 169 -101 231l-377 -502
c49 -28 104 -44 161 -44c172 0 317 142 317 315zM596 641c-51 30 -103 45 -162 45c-173 0 -317 -144 -317 -317c0 -88 37 -171 102 -230zM569 889l-198 -107l-33 58l199 109z" />
    <glyph glyph-name="oslashacute" unicode="&#x1ff;" horiz-adv-x="653" 
d="M613 274c0 -157 -130 -287 -287 -287c-51 0 -102 14 -145 42l-71 -93l-54 38l72 95c-54 53 -87 125 -87 201c0 158 126 291 285 291c51 0 101 -14 144 -41l72 94l55 -41l-72 -94c55 -54 88 -128 88 -205zM543 277c0 56 -19 109 -58 149l-264 -345c31 -20 69 -31 106 -31
c126 0 216 104 216 227zM431 468c-31 19 -67 30 -104 30c-124 0 -216 -106 -216 -227c0 -55 20 -108 58 -148zM462 706l-198 -107l-33 58l199 109z" />
    <glyph glyph-name="Scommaaccent" unicode="&#x218;" horiz-adv-x="498" 
d="M473 204c0 -123 -101 -217 -223 -217c-131 0 -226 87 -228 220h74c4 -91 61 -153 154 -153c82 0 149 64 149 147c0 100 -84 134 -165 158c-105 31 -192 67 -192 195c0 117 94 199 208 199s205 -86 205 -201h-74c0 72 -58 134 -131 134c-74 0 -134 -54 -134 -129
c0 -99 101 -116 176 -139c106 -32 181 -99 181 -214zM309 -53l-77 -169h-74l77 169h74z" />
    <glyph glyph-name="scommaaccent" unicode="&#x219;" horiz-adv-x="388" 
d="M364 154c0 -105 -69 -167 -172 -167c-98 0 -168 71 -168 169v6h70c1 -63 31 -112 98 -112c62 0 102 35 102 98c0 145 -254 78 -254 261c0 90 67 152 156 152c84 0 149 -65 149 -149h-70c-3 47 -32 86 -82 86c-47 0 -83 -35 -83 -82c0 -125 254 -60 254 -262zM254 -53
l-77 -169h-74l77 169h74z" />
    <glyph glyph-name="Tcommaaccent" unicode="&#x21a;" horiz-adv-x="426" 
d="M419 673h-169v-673h-74v673h-170v67h413v-67zM263 -53l-77 -169h-74l77 169h74z" />
    <glyph glyph-name="tcommaaccent" unicode="&#x21b;" horiz-adv-x="339" 
d="M330 484h-131v-484h-70v484h-115v63h115v193h70v-193h131v-63zM219 -53l-77 -169h-74l77 169h74z" />
    <glyph glyph-name="uni02C9" unicode="&#x2c9;" horiz-adv-x="485" 
d="M411 629h-338v67h338v-67z" />
    <glyph glyph-name="uni03A9" unicode="&#x3a9;" horiz-adv-x="667" 
d="M619 0h-212v62c57 54 135 145 135 313c0 157 -71 272 -202 272c-128 0 -208 -115 -208 -272c0 -163 73 -255 136 -313v-62h-212v62h142c-58 51 -144 151 -144 324c0 185 117 326 287 326c175 0 279 -132 279 -324c0 -157 -76 -266 -143 -326h142v-62z" />
    <glyph glyph-name="uni03BC" unicode="&#x3bc;" horiz-adv-x="608" 
d="M545 0h-66v85h-2c-32 -67 -103 -98 -175 -98c-65 0 -125 14 -166 69v-248h-70v739h70v-301c0 -112 41 -196 166 -196c46 0 83 12 116 44c48 46 57 99 57 164v289h70v-547z" />
    <glyph glyph-name="pi" unicode="&#x3c0;" horiz-adv-x="583" 
d="M534 59l14 -52c-15 -9 -38 -14 -63 -14c-83 0 -114 60 -114 130v318h-159v-306c0 -57 -5 -103 -13 -135h-76c11 39 15 90 15 139v302c-27 0 -69 -9 -94 -20c-7 18 -13 33 -21 52c25 13 72 27 135 27h388v-59h-101v-310c0 -47 16 -79 59 -79c11 0 20 3 30 7z" />
    <glyph glyph-name="Wgrave" unicode="&#x1e80;" horiz-adv-x="960" 
d="M950 740l-212 -740h-94l-163 607h-2l-162 -607h-95l-211 740h76l181 -645h2l176 645h69l177 -644h2l181 644h75zM571 839l-33 -58l-198 107l32 60z" />
    <glyph glyph-name="wgrave" unicode="&#x1e81;" horiz-adv-x="831" 
d="M820 547l-209 -547h-79l-116 364h-2l-114 -364h-79l-208 547h73l172 -458h2l125 392h61l126 -392h2l174 458h72zM506 657l-33 -58l-198 107l32 60z" />
    <glyph glyph-name="Wacute" unicode="&#x1e82;" horiz-adv-x="960" 
d="M950 740l-212 -740h-94l-163 607h-2l-162 -607h-95l-211 740h76l181 -645h2l176 645h69l177 -644h2l181 644h75zM622 888l-198 -107l-33 58l199 109z" />
    <glyph glyph-name="wacute" unicode="&#x1e83;" horiz-adv-x="831" 
d="M820 547l-209 -547h-79l-116 364h-2l-114 -364h-79l-208 547h73l172 -458h2l125 392h61l126 -392h2l174 458h72zM557 706l-198 -107l-33 58l199 109z" />
    <glyph glyph-name="Wdieresis" unicode="&#x1e84;" horiz-adv-x="960" 
d="M950 740l-212 -740h-94l-163 607h-2l-162 -607h-95l-211 740h76l181 -645h2l176 645h69l177 -644h2l181 644h75zM591 801h-74v126h74v-126zM443 801h-74v126h74v-126z" />
    <glyph glyph-name="wdieresis" unicode="&#x1e85;" horiz-adv-x="831" 
d="M820 547l-209 -547h-79l-116 364h-2l-114 -364h-79l-208 547h73l172 -458h2l125 392h61l126 -392h2l174 458h72zM526 619h-74v126h74v-126zM378 619h-74v126h74v-126z" />
    <glyph glyph-name="Ygrave" unicode="&#x1ef2;" horiz-adv-x="592" 
d="M592 740l-260 -493v-247h-74v247l-257 493h82l211 -415l217 415h81zM377 839l-33 -58l-198 107l32 60z" />
    <glyph glyph-name="ygrave" unicode="&#x1ef3;" horiz-adv-x="536" 
d="M523 547l-317 -739h-73l95 210l-213 529h74l174 -436l186 436h74zM349 657l-33 -58l-198 107l32 60z" />
    <glyph glyph-name="Euro" unicode="&#x20ac;" horiz-adv-x="554" 
d="M544 169c-8 -55 -29 -101 -60 -131c-35 -34 -85 -51 -151 -51c-79 0 -132 27 -168 72c-43 52 -62 117 -68 213h-89l25 63h61v36v34h-86l25 63h65c8 84 28 150 62 198c33 47 92 87 175 87c67 0 115 -21 148 -55c34 -34 52 -80 57 -128h-70c-5 32 -17 61 -38 81
c-23 21 -57 35 -98 35c-59 0 -97 -27 -122 -66c-22 -35 -35 -81 -41 -152h312l-25 -63h-290v-34v-36h262l-25 -63h-234c5 -77 18 -125 46 -163c22 -32 61 -55 118 -55c46 0 80 14 103 37c20 20 30 47 36 78h70z" />
    <glyph glyph-name="litre" unicode="&#x2113;" horiz-adv-x="461" 
d="M378 51c-26 -29 -67 -64 -122 -64c-34 0 -59 11 -77 30c-24 24 -37 67 -37 118v116c-19 -22 -37 -43 -56 -64c-11 12 -22 24 -32 36c29 34 59 67 88 101v234c0 116 47 170 116 170s94 -59 94 -104c0 -96 -47 -180 -110 -266c-9 -11 -22 -29 -30 -38v-186
c0 -67 27 -90 59 -90s58 24 80 48c9 -14 18 -27 27 -41zM298 617c0 25 -8 54 -36 54s-50 -23 -50 -111v-161c6 7 12 15 16 23c42 63 70 133 70 195z" />
    <glyph glyph-name="Omega" unicode="&#x2126;" horiz-adv-x="667" 
d="M611 0h-212v62c57 54 135 145 135 313c0 157 -71 272 -202 272c-128 0 -208 -115 -208 -272c0 -163 73 -255 136 -313v-62h-212v62h142c-58 51 -144 151 -144 324c0 185 117 326 287 326c175 0 279 -132 279 -324c0 -157 -76 -266 -143 -326h142v-62z" />
    <glyph glyph-name="estimated" unicode="&#x212e;" horiz-adv-x="635" 
d="M587 277h-428v-190c41 -41 92 -62 152 -62c92 0 156 45 204 126c12 -7 23 -15 35 -22c-59 -87 -125 -141 -239 -141c-167 0 -271 129 -271 289c0 161 102 290 271 290c172 0 270 -128 276 -290zM464 314v153c-42 41 -95 64 -154 64c-60 0 -110 -21 -151 -63v-154h305z
" />
    <glyph glyph-name="partialdiff" unicode="&#x2202;" horiz-adv-x="534" 
d="M495 494c0 -55 -8 -126 -25 -196c-34 -144 -120 -308 -265 -308c-99 0 -165 72 -165 181c0 191 123 328 253 328c63 0 104 -33 122 -68h2c3 21 5 44 5 73c0 114 -49 164 -128 164c-28 0 -60 -9 -86 -24c-6 17 -12 35 -19 53c25 15 72 30 114 30c116 0 192 -77 192 -233z
M407 359c-15 49 -51 83 -109 83c-98 0 -184 -127 -184 -274c0 -75 38 -118 92 -118c93 0 167 123 201 309z" />
    <glyph glyph-name="Delta" unicode="&#x2206;" horiz-adv-x="555" 
d="M551 0h-531v38c74 221 148 441 221 662h93c72 -221 145 -441 217 -662v-38zM464 63c-55 168 -109 336 -164 504c-7 24 -10 42 -14 56h-3c-3 -13 -8 -35 -14 -55c-54 -168 -109 -337 -164 -505h359z" />
    <glyph glyph-name="product" unicode="&#x220f;" horiz-adv-x="664" 
d="M584 -230h-75v865h-354v-865h-75v930h504v-930z" />
    <glyph glyph-name="summation" unicode="&#x2211;" horiz-adv-x="586" 
d="M545 -230h-521v34c101 145 201 290 302 435c-93 140 -186 281 -280 421v40h475v-62h-382c88 -133 176 -265 265 -397c-95 -137 -190 -273 -284 -409h425v-62z" />
    <glyph glyph-name="uni2215" unicode="&#x2215;" horiz-adv-x="166" 
d="M280 740l-333 -740h-60l333 740h60z" />
    <glyph glyph-name="uni2219" unicode="&#x2219;" horiz-adv-x="277" 
d="M176 190h-74v126h74v-126z" />
    <glyph glyph-name="radical" unicode="&#x221a;" horiz-adv-x="456" 
d="M470 728c-58 -247 -114 -493 -172 -740h-64c-42 113 -84 228 -126 341l-51 -30c-9 15 -17 30 -26 45c38 22 76 45 114 68c40 -109 80 -217 120 -325c49 213 98 428 147 641h58z" />
    <glyph glyph-name="infinity" unicode="&#x221e;" horiz-adv-x="718" 
d="M669 294c0 -88 -61 -157 -148 -157c-74 0 -131 48 -164 103h-2c-37 -56 -92 -103 -159 -103c-88 0 -153 61 -153 153c0 93 64 155 150 155c82 0 134 -56 162 -102h2c28 44 82 102 161 102c86 0 151 -61 151 -151zM605 293c0 53 -30 96 -90 96c-55 0 -93 -38 -129 -97
c34 -63 80 -99 128 -99c62 0 91 46 91 100zM327 292c-32 55 -80 97 -129 97c-63 0 -91 -46 -91 -99c0 -57 39 -97 91 -97c56 0 99 48 129 99z" />
    <glyph glyph-name="integral" unicode="&#x222b;" horiz-adv-x="460" 
d="M381 680c-9 5 -26 9 -41 9c-50 0 -77 -35 -77 -97v-654c0 -96 -49 -160 -143 -160c-21 0 -51 4 -64 10l15 57c12 -4 23 -7 41 -7c52 0 77 33 77 95v655c0 96 50 161 146 161c23 0 52 -6 62 -12c-6 -19 -11 -38 -16 -57z" />
    <glyph glyph-name="approxequal" unicode="&#x2248;" horiz-adv-x="606" 
d="M534 359c-32 -45 -65 -86 -125 -86c-80 0 -136 72 -217 72c-44 0 -68 -41 -84 -76l-36 50c26 51 65 86 125 86c77 0 167 -72 213 -72c41 0 68 46 88 76zM534 179c-32 -45 -65 -86 -125 -86c-80 0 -136 72 -217 72c-44 0 -68 -41 -84 -76l-36 50c26 51 65 86 125 86
c77 0 167 -72 213 -72c41 0 68 46 88 76z" />
    <glyph glyph-name="notequal" unicode="&#x2260;" horiz-adv-x="606" 
d="M516 506l-83 -118h122v-68h-165l-94 -134h259v-68h-301l-83 -118h-81l82 118h-121v68h163l93 134h-256v68h299l82 118h84z" />
    <glyph glyph-name="lessequal" unicode="&#x2264;" horiz-adv-x="606" 
d="M554 92l-508 230v62l508 230v-68l-425 -193l425 -193v-68zM555 -24h-504v68h504v-68z" />
    <glyph glyph-name="greaterequal" unicode="&#x2265;" horiz-adv-x="606" 
d="M560 322l-508 -230v68l425 193l-425 193v68l508 -230v-62zM555 -24h-504v68h504v-68z" />
    <glyph glyph-name="lozenge" unicode="&#x25ca;" horiz-adv-x="512" 
d="M452 350c-61 -117 -122 -233 -183 -350h-40c-60 116 -121 233 -182 349c61 117 122 234 182 351h40c61 -117 122 -233 183 -350zM390 350l-141 270c-46 -90 -94 -180 -140 -270c46 -90 93 -180 140 -270c47 90 93 180 141 270z" />
    <glyph glyph-name="A.alt01" unicode="&#xe000;" horiz-adv-x="690" 
d="M614 0h-74v249h-280l-173 -249h-90l516 740h101v-740zM540 316v340h-2l-231 -340h233z" />
    <glyph glyph-name="Aacute.alt01" unicode="&#xe001;" horiz-adv-x="690" 
d="M614 0h-74v249h-280l-173 -249h-90l516 740h101v-740zM540 316v340h-2l-231 -340h233zM713 888l-198 -107l-33 58l199 109z" />
    <glyph glyph-name="Agrave.alt01" unicode="&#xe002;" horiz-adv-x="690" 
d="M614 0h-74v249h-280l-173 -249h-90l516 740h101v-740zM540 316v340h-2l-231 -340h233zM631 839l-33 -58l-198 107l32 60z" />
    <glyph glyph-name="Acircumflex.alt01" unicode="&#xe003;" horiz-adv-x="690" 
d="M614 0h-74v249h-280l-173 -249h-90l516 740h101v-740zM540 316v340h-2l-231 -340h233zM555 937l175 -133h-83l-120 82l-119 -82h-83l176 133h54z" />
    <glyph glyph-name="Adieresis.alt01" unicode="&#xe004;" horiz-adv-x="690" 
d="M614 0h-74v249h-280l-173 -249h-90l516 740h101v-740zM540 316v340h-2l-231 -340h233zM503 933v-128h-72v128h72zM691 933v-128h-72v128h72z" />
    <glyph glyph-name="Atilde.alt01" unicode="&#xe005;" horiz-adv-x="690" 
d="M614 0h-74v249h-280l-173 -249h-90l516 740h101v-740zM540 316v340h-2l-231 -340h233zM694 894l32 -50c-28 -25 -64 -39 -101 -39c-59 0 -112 34 -170 34c-29 0 -55 -10 -76 -30l-32 51c26 25 64 39 100 39c60 0 112 -34 171 -34c28 0 56 9 76 29z" />
    <glyph glyph-name="Aring.alt01" unicode="&#xe006;" horiz-adv-x="690" 
d="M614 0h-74v249h-280l-173 -249h-90l516 740h101v-740zM540 316v340h-2l-231 -340h233zM564 967c57 0 102 -47 102 -103c0 -57 -47 -102 -103 -102s-103 45 -103 102s47 103 104 103zM562 923c-31 0 -56 -27 -56 -58s26 -56 57 -56s57 24 57 56c0 33 -25 58 -58 58z" />
    <glyph glyph-name="Amacron.alt01" unicode="&#xe007;" horiz-adv-x="690" 
d="M614 0h-74v249h-280l-173 -249h-90l516 740h101v-740zM540 316v340h-2l-231 -340h233zM688 821h-338v67h338v-67z" />
    <glyph glyph-name="Abreve.alt01" unicode="&#xe008;" horiz-adv-x="690" 
d="M614 0h-74v249h-280l-173 -249h-90l516 740h101v-740zM540 316v340h-2l-231 -340h233zM703 906c-28 -77 -99 -103 -175 -103s-146 26 -174 103h65c25 -34 69 -46 109 -46s85 12 110 46h65z" />
    <glyph glyph-name="Aogonek.alt01" unicode="&#xe009;" horiz-adv-x="690" 
d="M637 -182c-17 -6 -33 -9 -51 -9c-54 0 -104 31 -104 90c0 49 34 77 72 101h-14v249h-280l-173 -249h-90l516 740h101v-740h-8c-30 -23 -75 -56 -75 -98c0 -32 29 -50 58 -50c16 0 33 4 48 10v-44zM540 316v340h-2l-231 -340h233z" />
    <glyph glyph-name="A.alt02" unicode="&#xe00a;" horiz-adv-x="690" 
d="M694 0h-91l-172 249h-281v-249h-74v740h102zM384 316l-232 340h-2v-340h234z" />
    <glyph glyph-name="Aacute.alt02" unicode="&#xe00b;" horiz-adv-x="690" 
d="M694 0h-91l-172 249h-281v-249h-74v740h102zM384 316l-232 340h-2v-340h234zM290 888l-198 -107l-33 58l199 109z" />
    <glyph glyph-name="Agrave.alt02" unicode="&#xe00c;" horiz-adv-x="690" 
d="M694 0h-91l-172 249h-281v-249h-74v740h102zM384 316l-232 340h-2v-340h234zM241 839l-33 -58l-198 107l32 60z" />
    <glyph glyph-name="Acircumflex.alt02" unicode="&#xe00d;" horiz-adv-x="690" 
d="M694 0h-91l-172 249h-281v-249h-74v740h102zM384 316l-232 340h-2v-340h234zM183 937l175 -133h-83l-120 82l-119 -82h-83l176 133h54z" />
    <glyph glyph-name="Adieresis.alt02" unicode="&#xe00e;" horiz-adv-x="690" 
d="M694 0h-91l-172 249h-281v-249h-74v740h102zM384 316l-232 340h-2v-340h234zM68 933v-128h-72v128h72zM256 933v-128h-72v128h72z" />
    <glyph glyph-name="Atilde.alt02" unicode="&#xe00f;" horiz-adv-x="690" 
d="M694 0h-91l-172 249h-281v-249h-74v740h102zM384 316l-232 340h-2v-340h234zM294 894l32 -50c-28 -25 -64 -39 -101 -39c-59 0 -112 34 -170 34c-29 0 -55 -10 -76 -30l-32 51c26 25 64 39 100 39c60 0 112 -34 171 -34c28 0 56 9 76 29z" />
    <glyph glyph-name="Aring.alt02" unicode="&#xe010;" horiz-adv-x="690" 
d="M694 0h-91l-172 249h-281v-249h-74v740h102zM384 316l-232 340h-2v-340h234zM127 967c57 0 102 -47 102 -103c0 -57 -47 -102 -103 -102s-103 45 -103 102s47 103 104 103zM125 923c-31 0 -56 -27 -56 -58s26 -56 57 -56s57 24 57 56c0 33 -25 58 -58 58z" />
    <glyph glyph-name="Amacron.alt02" unicode="&#xe011;" horiz-adv-x="690" 
d="M694 0h-91l-172 249h-281v-249h-74v740h102zM384 316l-232 340h-2v-340h234zM327 821h-338v67h338v-67z" />
    <glyph glyph-name="Abreve.alt02" unicode="&#xe012;" horiz-adv-x="690" 
d="M694 0h-91l-172 249h-281v-249h-74v740h102zM384 316l-232 340h-2v-340h234zM313 906c-28 -77 -99 -103 -175 -103s-146 26 -174 103h65c25 -34 69 -46 109 -46s85 12 110 46h65z" />
    <glyph glyph-name="Aogonek.alt02" unicode="&#xe013;" horiz-adv-x="690" 
d="M710 -182c-17 -6 -33 -9 -51 -9c-54 0 -104 31 -104 90c0 49 34 77 72 101h-24l-172 249h-281v-249h-74v740h102l516 -740h-15c-30 -23 -75 -56 -75 -98c0 -32 29 -50 58 -50c16 0 33 4 48 10v-44zM384 316l-232 340h-2v-340h234z" />
    <glyph glyph-name="A.alt03" unicode="&#xe014;" horiz-adv-x="895" 
d="M819 0h-74v136h-2c-70 -97 -182 -149 -309 -149c-224 0 -391 171 -391 379c0 228 175 387 381 387c147 0 253 -62 319 -149h2v136h74v-740zM752 369c0 173 -139 317 -318 317c-173 0 -317 -131 -317 -320c0 -169 137 -312 317 -312c176 0 318 139 318 315z" />
    <glyph glyph-name="Aacute.alt03" unicode="&#xe015;" horiz-adv-x="895" 
d="M819 0h-74v136h-2c-70 -97 -182 -149 -309 -149c-224 0 -391 171 -391 379c0 228 175 387 381 387c147 0 253 -62 319 -149h2v136h74v-740zM752 369c0 173 -139 317 -318 317c-173 0 -317 -131 -317 -320c0 -169 137 -312 317 -312c176 0 318 139 318 315zM595 888
l-198 -107l-33 58l199 109z" />
    <glyph glyph-name="Agrave.alt03" unicode="&#xe016;" horiz-adv-x="895" 
d="M819 0h-74v136h-2c-70 -97 -182 -149 -309 -149c-224 0 -391 171 -391 379c0 228 175 387 381 387c147 0 253 -62 319 -149h2v136h74v-740zM752 369c0 173 -139 317 -318 317c-173 0 -317 -131 -317 -320c0 -169 137 -312 317 -312c176 0 318 139 318 315zM506 839
l-33 -58l-198 107l32 60z" />
    <glyph glyph-name="Acircumflex.alt03" unicode="&#xe017;" horiz-adv-x="895" 
d="M819 0h-74v136h-2c-70 -97 -182 -149 -309 -149c-224 0 -391 171 -391 379c0 228 175 387 381 387c147 0 253 -62 319 -149h2v136h74v-740zM752 369c0 173 -139 317 -318 317c-173 0 -317 -131 -317 -320c0 -169 137 -312 317 -312c176 0 318 139 318 315zM461 927
l175 -133h-83l-120 82l-119 -82h-83l176 133h54z" />
    <glyph glyph-name="Adieresis.alt03" unicode="&#xe018;" horiz-adv-x="895" 
d="M819 0h-74v136h-2c-70 -97 -182 -149 -309 -149c-224 0 -391 171 -391 379c0 228 175 387 381 387c147 0 253 -62 319 -149h2v136h74v-740zM752 369c0 173 -139 317 -318 317c-173 0 -317 -131 -317 -320c0 -169 137 -312 317 -312c176 0 318 139 318 315zM366 933v-128
h-72v128h72zM554 933v-128h-72v128h72z" />
    <glyph glyph-name="Atilde.alt03" unicode="&#xe019;" horiz-adv-x="895" 
d="M819 0h-74v136h-2c-70 -97 -182 -149 -309 -149c-224 0 -391 171 -391 379c0 228 175 387 381 387c147 0 253 -62 319 -149h2v136h74v-740zM752 369c0 173 -139 317 -318 317c-173 0 -317 -131 -317 -320c0 -169 137 -312 317 -312c176 0 318 139 318 315zM590 894
l32 -50c-28 -25 -64 -39 -101 -39c-59 0 -112 34 -170 34c-29 0 -55 -10 -76 -30l-32 51c26 25 64 39 100 39c60 0 112 -34 171 -34c28 0 56 9 76 29z" />
    <glyph glyph-name="Aring.alt03" unicode="&#xe01a;" horiz-adv-x="895" 
d="M819 0h-74v136h-2c-70 -97 -182 -149 -309 -149c-224 0 -391 171 -391 379c0 228 175 387 381 387c147 0 253 -62 319 -149h2v136h74v-740zM752 369c0 173 -139 317 -318 317c-173 0 -317 -131 -317 -320c0 -169 137 -312 317 -312c176 0 318 139 318 315zM437 987
c57 0 102 -47 102 -103c0 -57 -47 -102 -103 -102s-103 45 -103 102s47 103 104 103zM435 943c-31 0 -56 -27 -56 -58s26 -56 57 -56s57 24 57 56c0 33 -25 58 -58 58z" />
    <glyph glyph-name="Amacron.alt03" unicode="&#xe01b;" horiz-adv-x="895" 
d="M819 0h-74v136h-2c-70 -97 -182 -149 -309 -149c-224 0 -391 171 -391 379c0 228 175 387 381 387c147 0 253 -62 319 -149h2v136h74v-740zM752 369c0 173 -139 317 -318 317c-173 0 -317 -131 -317 -320c0 -169 137 -312 317 -312c176 0 318 139 318 315zM596 821h-338
v67h338v-67z" />
    <glyph glyph-name="Abreve.alt03" unicode="&#xe01c;" horiz-adv-x="895" 
d="M819 0h-74v136h-2c-70 -97 -182 -149 -309 -149c-224 0 -391 171 -391 379c0 228 175 387 381 387c147 0 253 -62 319 -149h2v136h74v-740zM752 369c0 173 -139 317 -318 317c-173 0 -317 -131 -317 -320c0 -169 137 -312 317 -312c176 0 318 139 318 315zM612 906
c-28 -77 -99 -103 -175 -103s-146 26 -174 103h65c25 -34 69 -46 109 -46s85 12 110 46h65z" />
    <glyph glyph-name="Aogonek.alt03" unicode="&#xe01d;" horiz-adv-x="895" 
d="M840 -182c-17 -6 -33 -9 -51 -9c-54 0 -104 31 -104 90c0 49 34 77 72 101h-12v136h-2c-70 -97 -182 -149 -309 -149c-224 0 -391 171 -391 379c0 228 175 387 381 387c147 0 253 -62 319 -149h2v136h74v-740h-10c-30 -23 -75 -56 -75 -98c0 -32 29 -50 58 -50
c16 0 33 4 48 10v-44zM752 369c0 173 -139 317 -318 317c-173 0 -317 -131 -317 -320c0 -169 137 -312 317 -312c176 0 318 139 318 315z" />
    <glyph glyph-name="C.alt01" unicode="&#xe01e;" horiz-adv-x="665" 
d="M612 25c-48 -25 -115 -38 -187 -38c-227 0 -382 167 -382 385c0 223 168 382 383 382c74 0 158 -22 186 -41v-80c-32 24 -119 53 -185 53c-181 0 -310 -140 -310 -315c0 -180 134 -317 309 -317c73 0 140 23 186 50v-79z" />
    <glyph glyph-name="Ccedilla.alt01" unicode="&#xe01f;" horiz-adv-x="665" 
d="M612 25c-48 -25 -115 -38 -187 -38c-9 0 -18 0 -27 1l-19 -46c12 5 18 7 32 7c44 0 77 -35 78 -81v-2c0 -52 -41 -88 -86 -88c-38 0 -75 19 -88 71l42 5c6 -25 25 -39 46 -39c29 0 45 24 45 51c0 30 -19 48 -45 48c-28 0 -38 -13 -45 -22l-37 18l36 82
c-189 30 -314 184 -314 380c0 223 168 382 383 382c74 0 158 -22 186 -41v-80c-32 24 -119 53 -185 53c-181 0 -310 -140 -310 -315c0 -180 134 -317 309 -317c73 0 140 23 186 50v-79z" />
    <glyph glyph-name="Cacute.alt01" unicode="&#xe020;" horiz-adv-x="665" 
d="M612 25c-48 -25 -115 -38 -187 -38c-227 0 -382 167 -382 385c0 223 168 382 383 382c74 0 158 -22 186 -41v-80c-32 24 -119 53 -185 53c-181 0 -310 -140 -310 -315c0 -180 134 -317 309 -317c73 0 140 23 186 50v-79zM540 888l-198 -107l-33 58l199 109z" />
    <glyph glyph-name="Ccircumflex.alt01" unicode="&#xe021;" horiz-adv-x="665" 
d="M612 25c-48 -25 -115 -38 -187 -38c-227 0 -382 167 -382 385c0 223 168 382 383 382c74 0 158 -22 186 -41v-80c-32 24 -119 53 -185 53c-181 0 -310 -140 -310 -315c0 -180 134 -317 309 -317c73 0 140 23 186 50v-79zM587 801h-89l-86 73l-88 -73h-91l145 125h66z" />
    <glyph glyph-name="Cdotaccent.alt01" unicode="&#xe022;" horiz-adv-x="665" 
d="M612 25c-48 -25 -115 -38 -187 -38c-227 0 -382 167 -382 385c0 223 168 382 383 382c74 0 158 -22 186 -41v-80c-32 24 -119 53 -185 53c-181 0 -310 -140 -310 -315c0 -180 134 -317 309 -317c73 0 140 23 186 50v-79zM438 801h-74v126h74v-126z" />
    <glyph glyph-name="Ccaron.alt01" unicode="&#xe023;" horiz-adv-x="665" 
d="M612 25c-48 -25 -115 -38 -187 -38c-227 0 -382 167 -382 385c0 223 168 382 383 382c74 0 158 -22 186 -41v-80c-32 24 -119 53 -185 53c-181 0 -310 -140 -310 -315c0 -180 134 -317 309 -317c73 0 140 23 186 50v-79zM578 926l-143 -125h-67l-145 125h92l86 -73l88 73
h89z" />
    <glyph glyph-name="E.alt01" unicode="&#xe024;" horiz-adv-x="665" 
d="M612 25c-48 -25 -115 -38 -187 -38c-234 0 -382 167 -382 385c0 207 152 382 380 382c80 0 161 -22 189 -41v-80c-36 27 -98 53 -184 53c-176 0 -293 -121 -309 -279h482v-68h-483c15 -167 139 -285 308 -285c81 0 140 23 186 50v-79z" />
    <glyph glyph-name="Eacute.alt01" unicode="&#xe025;" horiz-adv-x="665" 
d="M612 25c-48 -25 -115 -38 -187 -38c-234 0 -382 167 -382 385c0 207 152 382 380 382c80 0 161 -22 189 -41v-80c-36 27 -98 53 -184 53c-176 0 -293 -121 -309 -279h482v-68h-483c15 -167 139 -285 308 -285c81 0 140 23 186 50v-79zM528 888l-198 -107l-33 58l199 109z
" />
    <glyph glyph-name="Egrave.alt01" unicode="&#xe026;" horiz-adv-x="665" 
d="M612 25c-48 -25 -115 -38 -187 -38c-234 0 -382 167 -382 385c0 207 152 382 380 382c80 0 161 -22 189 -41v-80c-36 27 -98 53 -184 53c-176 0 -293 -121 -309 -279h482v-68h-483c15 -167 139 -285 308 -285c81 0 140 23 186 50v-79zM473 839l-33 -58l-198 107l32 60z
" />
    <glyph glyph-name="Ecircumflex.alt01" unicode="&#xe027;" horiz-adv-x="665" 
d="M612 25c-48 -25 -115 -38 -187 -38c-234 0 -382 167 -382 385c0 207 152 382 380 382c80 0 161 -22 189 -41v-80c-36 27 -98 53 -184 53c-176 0 -293 -121 -309 -279h482v-68h-483c15 -167 139 -285 308 -285c81 0 140 23 186 50v-79zM428 937l175 -133h-83l-120 82
l-119 -82h-83l176 133h54z" />
    <glyph glyph-name="Edieresis.alt01" unicode="&#xe028;" horiz-adv-x="665" 
d="M612 25c-48 -25 -115 -38 -187 -38c-234 0 -382 167 -382 385c0 207 152 382 380 382c80 0 161 -22 189 -41v-80c-36 27 -98 53 -184 53c-176 0 -293 -121 -309 -279h482v-68h-483c15 -167 139 -285 308 -285c81 0 140 23 186 50v-79zM349 933v-128h-72v128h72zM537 933
v-128h-72v128h72z" />
    <glyph glyph-name="Emacron.alt01" unicode="&#xe029;" horiz-adv-x="665" 
d="M612 25c-48 -25 -115 -38 -187 -38c-234 0 -382 167 -382 385c0 207 152 382 380 382c80 0 161 -22 189 -41v-80c-36 27 -98 53 -184 53c-176 0 -293 -121 -309 -279h482v-68h-483c15 -167 139 -285 308 -285c81 0 140 23 186 50v-79zM560 821h-338v67h338v-67z" />
    <glyph glyph-name="Ebreve.alt01" unicode="&#xe02a;" horiz-adv-x="665" 
d="M612 25c-48 -25 -115 -38 -187 -38c-234 0 -382 167 -382 385c0 207 152 382 380 382c80 0 161 -22 189 -41v-80c-36 27 -98 53 -184 53c-176 0 -293 -121 -309 -279h482v-68h-483c15 -167 139 -285 308 -285c81 0 140 23 186 50v-79zM576 906
c-28 -77 -99 -103 -175 -103s-146 26 -174 103h65c25 -34 69 -46 109 -46s85 12 110 46h65z" />
    <glyph glyph-name="Edotaccent.alt01" unicode="&#xe02b;" horiz-adv-x="665" 
d="M612 25c-48 -25 -115 -38 -187 -38c-234 0 -382 167 -382 385c0 207 152 382 380 382c80 0 161 -22 189 -41v-80c-36 27 -98 53 -184 53c-176 0 -293 -121 -309 -279h482v-68h-483c15 -167 139 -285 308 -285c81 0 140 23 186 50v-79zM429 801h-74v126h74v-126z" />
    <glyph glyph-name="Eogonek.alt01" unicode="&#xe02c;" horiz-adv-x="665" 
d="M546 -182c-17 -6 -33 -9 -51 -9c-54 0 -104 31 -104 90c0 41 23 67 52 88h-18c-234 0 -382 167 -382 385c0 207 152 382 380 382c80 0 161 -22 189 -41v-80c-36 27 -98 53 -184 53c-176 0 -293 -121 -309 -279h482v-68h-483c15 -167 139 -285 308 -285
c81 0 140 23 186 50v-79c-30 -16 -67 -26 -107 -32c-29 -23 -65 -53 -65 -91c0 -32 29 -50 58 -50c16 0 33 4 48 10v-44z" />
    <glyph glyph-name="Ecaron.alt01" unicode="&#xe02d;" horiz-adv-x="665" 
d="M612 25c-48 -25 -115 -38 -187 -38c-234 0 -382 167 -382 385c0 207 152 382 380 382c80 0 161 -22 189 -41v-80c-36 27 -98 53 -184 53c-176 0 -293 -121 -309 -279h482v-68h-483c15 -167 139 -285 308 -285c81 0 140 23 186 50v-79zM574 926l-143 -125h-67l-145 125h92
l86 -73l88 73h89z" />
    <glyph glyph-name="E.alt02" unicode="&#xe02e;" horiz-adv-x="855" 
d="M826 369c0 -11 0 -22 -2 -34h-705c14 -147 136 -280 315 -280c132 0 230 74 282 169h80c-58 -137 -198 -237 -362 -237c-227 0 -391 175 -391 383c0 213 178 383 391 383c214 0 392 -169 392 -384zM750 402c-15 151 -148 284 -316 284c-176 0 -301 -141 -315 -284h631z
" />
    <glyph glyph-name="Eacute.alt02" unicode="&#xe02f;" horiz-adv-x="855" 
d="M826 369c0 -11 0 -22 -2 -34h-705c14 -147 136 -280 315 -280c132 0 230 74 282 169h80c-58 -137 -198 -237 -362 -237c-227 0 -391 175 -391 383c0 213 178 383 391 383c214 0 392 -169 392 -384zM750 402c-15 151 -148 284 -316 284c-176 0 -301 -141 -315 -284h631z
M569 888l-198 -107l-33 58l199 109z" />
    <glyph glyph-name="Egrave.alt02" unicode="&#xe030;" horiz-adv-x="855" 
d="M826 369c0 -11 0 -22 -2 -34h-705c14 -147 136 -280 315 -280c132 0 230 74 282 169h80c-58 -137 -198 -237 -362 -237c-227 0 -391 175 -391 383c0 213 178 383 391 383c214 0 392 -169 392 -384zM750 402c-15 151 -148 284 -316 284c-176 0 -301 -141 -315 -284h631z
M504 839l-33 -58l-198 107l32 60z" />
    <glyph glyph-name="Ecircumflex.alt02" unicode="&#xe031;" horiz-adv-x="855" 
d="M826 369c0 -11 0 -22 -2 -34h-705c14 -147 136 -280 315 -280c132 0 230 74 282 169h80c-58 -137 -198 -237 -362 -237c-227 0 -391 175 -391 383c0 213 178 383 391 383c214 0 392 -169 392 -384zM750 402c-15 151 -148 284 -316 284c-176 0 -301 -141 -315 -284h631z
M463 937l175 -133h-83l-120 82l-119 -82h-83l176 133h54z" />
    <glyph glyph-name="Edieresis.alt02" unicode="&#xe032;" horiz-adv-x="855" 
d="M826 369c0 -11 0 -22 -2 -34h-705c14 -147 136 -280 315 -280c132 0 230 74 282 169h80c-58 -137 -198 -237 -362 -237c-227 0 -391 175 -391 383c0 213 178 383 391 383c214 0 392 -169 392 -384zM750 402c-15 151 -148 284 -316 284c-176 0 -301 -141 -315 -284h631z
M373 933v-128h-72v128h72zM561 933v-128h-72v128h72z" />
    <glyph glyph-name="Emacron.alt02" unicode="&#xe033;" horiz-adv-x="855" 
d="M826 369c0 -11 0 -22 -2 -34h-705c14 -147 136 -280 315 -280c132 0 230 74 282 169h80c-58 -137 -198 -237 -362 -237c-227 0 -391 175 -391 383c0 213 178 383 391 383c214 0 392 -169 392 -384zM750 402c-15 151 -148 284 -316 284c-176 0 -301 -141 -315 -284h631z
M596 821h-338v67h338v-67z" />
    <glyph glyph-name="Ebreve.alt02" unicode="&#xe034;" horiz-adv-x="855" 
d="M826 369c0 -11 0 -22 -2 -34h-705c14 -147 136 -280 315 -280c132 0 230 74 282 169h80c-58 -137 -198 -237 -362 -237c-227 0 -391 175 -391 383c0 213 178 383 391 383c214 0 392 -169 392 -384zM750 402c-15 151 -148 284 -316 284c-176 0 -301 -141 -315 -284h631z
M602 906c-28 -77 -99 -103 -175 -103s-146 26 -174 103h65c25 -34 69 -46 109 -46s85 12 110 46h65z" />
    <glyph glyph-name="Edotaccent.alt02" unicode="&#xe035;" horiz-adv-x="855" 
d="M826 369c0 -11 0 -22 -2 -34h-705c14 -147 136 -280 315 -280c132 0 230 74 282 169h80c-58 -137 -198 -237 -362 -237c-227 0 -391 175 -391 383c0 213 178 383 391 383c214 0 392 -169 392 -384zM750 402c-15 151 -148 284 -316 284c-176 0 -301 -141 -315 -284h631z
M464 801h-74v126h74v-126z" />
    <glyph glyph-name="Eogonek.alt02" unicode="&#xe036;" horiz-adv-x="855" 
d="M555 -182c-17 -6 -33 -9 -51 -9c-54 0 -104 31 -104 90c0 41 23 67 53 89c-6 -1 -13 -1 -19 -1c-227 0 -391 175 -391 383c0 213 178 383 391 383c214 0 392 -169 392 -384c0 -11 0 -22 -2 -34h-705c14 -147 136 -280 315 -280c132 0 230 74 282 169h80
c-48 -113 -151 -201 -278 -228c-29 -23 -69 -54 -69 -94c0 -32 29 -50 58 -50c16 0 33 4 48 10v-44zM750 402c-15 151 -148 284 -316 284c-176 0 -301 -141 -315 -284h631z" />
    <glyph glyph-name="Ecaron.alt02" unicode="&#xe037;" horiz-adv-x="855" 
d="M826 369c0 -11 0 -22 -2 -34h-705c14 -147 136 -280 315 -280c132 0 230 74 282 169h80c-58 -137 -198 -237 -362 -237c-227 0 -391 175 -391 383c0 213 178 383 391 383c214 0 392 -169 392 -384zM750 402c-15 151 -148 284 -316 284c-176 0 -301 -141 -315 -284h631z
M599 926l-143 -125h-67l-145 125h92l86 -73l88 73h89z" />
    <glyph glyph-name="K.alt01" unicode="&#xe038;" horiz-adv-x="586" 
d="M586 0h-93l-247 321l-96 -118v-203h-74v740h74v-425h2l339 425h95l-293 -361z" />
    <glyph glyph-name="Kcommaaccent.alt01" unicode="&#xe039;" horiz-adv-x="586" 
d="M586 0h-93l-247 321l-96 -118v-203h-74v740h74v-425h2l339 425h95l-293 -361zM338 -53l-77 -169h-74l77 169h74z" />
    <glyph glyph-name="K.alt02" unicode="&#xe03a;" horiz-adv-x="569" 
d="M569 0h-92l-288 376l283 364h90l-286 -363zM150 0h-74v740h74v-740z" />
    <glyph glyph-name="Kcommaaccent.alt02" unicode="&#xe03b;" horiz-adv-x="569" 
d="M569 0h-92l-288 376l283 364h90l-286 -363zM150 0h-74v740h74v-740zM340 -53l-77 -169h-74l77 169h74z" />
    <glyph glyph-name="M.alt01" unicode="&#xe03c;" horiz-adv-x="1228" 
d="M1152 0h-74v660h-2l-465 -660h-65v664h-2l-450 -664h-93l513 740h106v-604h2l428 604h102v-740z" />
    <glyph glyph-name="M.alt02" unicode="&#xe03d;" horiz-adv-x="1227" 
d="M1226 0h-93l-450 664h-2v-664h-65l-465 660h-2v-660h-74v740h102l428 -604h2v604h106z" />
    <glyph glyph-name="M.alt03" unicode="&#xe03e;" horiz-adv-x="1144" 
d="M1073 0h-74v454c0 139 -46 232 -187 232c-126 0 -200 -91 -200 -233v-453h-74v454c0 139 -47 232 -188 232c-126 0 -200 -91 -200 -233v-453h-74v740h73v-97h3c52 92 143 111 208 111c117 0 192 -61 219 -144h2c36 83 102 144 233 144c187 0 259 -131 259 -295v-459z" />
    <glyph glyph-name="N.alt01" unicode="&#xe03f;" horiz-adv-x="708" 
d="M637 0h-74v454c0 139 -60 232 -201 232c-126 0 -212 -91 -212 -233v-453h-74v740h73v-98h3c44 78 123 112 218 112c140 0 267 -84 267 -288v-466z" />
    <glyph glyph-name="Ntilde.alt01" unicode="&#xe040;" horiz-adv-x="708" 
d="M637 0h-74v454c0 139 -60 232 -201 232c-126 0 -212 -91 -212 -233v-453h-74v740h73v-98h3c44 78 123 112 218 112c140 0 267 -84 267 -288v-466zM514 891l32 -50c-27 -26 -64 -39 -101 -39c-59 0 -111 33 -170 33c-28 0 -55 -9 -76 -29l-31 51c26 25 64 38 100 38
c64 0 111 -33 170 -33c28 0 56 8 76 29z" />
    <glyph glyph-name="Nacute.alt01" unicode="&#xe041;" horiz-adv-x="708" 
d="M637 0h-74v454c0 139 -60 232 -201 232c-126 0 -212 -91 -212 -233v-453h-74v740h73v-98h3c44 78 123 112 218 112c140 0 267 -84 267 -288v-466zM496 888l-198 -107l-33 58l199 109z" />
    <glyph glyph-name="Ncommaaccent.alt01" unicode="&#xe042;" horiz-adv-x="708" 
d="M637 0h-74v454c0 139 -60 232 -201 232c-126 0 -212 -91 -212 -233v-453h-74v740h73v-98h3c44 78 123 112 218 112c140 0 267 -84 267 -288v-466zM404 -53l-77 -169h-74l77 169h74z" />
    <glyph glyph-name="Ncaron.alt01" unicode="&#xe043;" horiz-adv-x="708" 
d="M637 0h-74v454c0 139 -60 232 -201 232c-126 0 -212 -91 -212 -233v-453h-74v740h73v-98h3c44 78 123 112 218 112c140 0 267 -84 267 -288v-466zM526 926l-143 -125h-67l-145 125h92l86 -73l88 73h89z" />
    <glyph glyph-name="U.alt01" unicode="&#xe044;" horiz-adv-x="708" 
d="M632 0h-73v97h-3c-54 -92 -155 -111 -220 -111c-186 0 -265 133 -265 295v459h74v-454c0 -139 60 -232 201 -232c126 0 212 91 212 233v453h74v-740z" />
    <glyph glyph-name="Uacute.alt01" unicode="&#xe045;" horiz-adv-x="708" 
d="M632 0h-73v97h-3c-54 -92 -155 -111 -220 -111c-186 0 -265 133 -265 295v459h74v-454c0 -139 60 -232 201 -232c126 0 212 91 212 233v453h74v-740zM518 888l-198 -107l-33 58l199 109z" />
    <glyph glyph-name="Ugrave.alt01" unicode="&#xe046;" horiz-adv-x="708" 
d="M632 0h-73v97h-3c-54 -92 -155 -111 -220 -111c-186 0 -265 133 -265 295v459h74v-454c0 -139 60 -232 201 -232c126 0 212 91 212 233v453h74v-740zM420 839l-33 -58l-198 107l32 60z" />
    <glyph glyph-name="Ucircumflex.alt01" unicode="&#xe047;" horiz-adv-x="708" 
d="M632 0h-73v97h-3c-54 -92 -155 -111 -220 -111c-186 0 -265 133 -265 295v459h74v-454c0 -139 60 -232 201 -232c126 0 212 91 212 233v453h74v-740zM377 937l175 -133h-83l-120 82l-119 -82h-83l176 133h54z" />
    <glyph glyph-name="Udieresis.alt01" unicode="&#xe048;" horiz-adv-x="708" 
d="M632 0h-73v97h-3c-54 -92 -155 -111 -220 -111c-186 0 -265 133 -265 295v459h74v-454c0 -139 60 -232 201 -232c126 0 212 91 212 233v453h74v-740zM298 933v-128h-72v128h72zM486 933v-128h-72v128h72z" />
    <glyph glyph-name="Utilde.alt01" unicode="&#xe049;" horiz-adv-x="708" 
d="M632 0h-73v97h-3c-54 -92 -155 -111 -220 -111c-186 0 -265 133 -265 295v459h74v-454c0 -139 60 -232 201 -232c126 0 212 91 212 233v453h74v-740zM527 842c-27 -20 -64 -39 -98 -39c-60 0 -99 41 -145 41c-25 0 -49 -13 -67 -30l-35 50c29 27 64 42 104 42
c58 0 96 -41 142 -41c24 0 43 14 63 26z" />
    <glyph glyph-name="Umacron.alt01" unicode="&#xe04a;" horiz-adv-x="708" 
d="M632 0h-73v97h-3c-54 -92 -155 -111 -220 -111c-186 0 -265 133 -265 295v459h74v-454c0 -139 60 -232 201 -232c126 0 212 91 212 233v453h74v-740zM523 821h-338v67h338v-67z" />
    <glyph glyph-name="Ubreve.alt01" unicode="&#xe04b;" horiz-adv-x="708" 
d="M632 0h-73v97h-3c-54 -92 -155 -111 -220 -111c-186 0 -265 133 -265 295v459h74v-454c0 -139 60 -232 201 -232c126 0 212 91 212 233v453h74v-740zM529 906c-28 -77 -99 -103 -175 -103s-146 26 -174 103h65c25 -34 69 -46 109 -46s85 12 110 46h65z" />
    <glyph glyph-name="Uhungarumlaut.alt01" unicode="&#xe04c;" horiz-adv-x="708" 
d="M632 0h-73v97h-3c-54 -92 -155 -111 -220 -111c-186 0 -265 133 -265 295v459h74v-454c0 -139 60 -232 201 -232c126 0 212 91 212 233v453h74v-740zM594 912l-164 -135l-38 46l162 135zM419 912l-164 -135l-38 46l161 135z" />
    <glyph glyph-name="Uring.alt01" unicode="&#xe04d;" horiz-adv-x="708" 
d="M632 0h-73v97h-3c-54 -92 -155 -111 -220 -111c-186 0 -265 133 -265 295v459h74v-454c0 -139 60 -232 201 -232c126 0 212 91 212 233v453h74v-740zM457 875c0 -57 -47 -103 -104 -103c-56 0 -103 47 -103 103s46 104 103 104c58 0 104 -46 104 -104zM405 875
c0 29 -23 52 -52 52c-28 0 -51 -24 -51 -52s23 -51 51 -51s52 22 52 51z" />
    <glyph glyph-name="Uogonek.alt01" unicode="&#xe04e;" horiz-adv-x="708" 
d="M658 -182c-17 -6 -33 -9 -51 -9c-54 0 -104 31 -104 90c0 49 34 77 72 101h-16v97h-3c-54 -92 -155 -111 -220 -111c-186 0 -265 133 -265 295v459h74v-454c0 -139 60 -232 201 -232c126 0 212 91 212 233v453h74v-740h-5c-30 -23 -75 -56 -75 -98c0 -32 29 -50 58 -50
c16 0 33 4 48 10v-44z" />
    <glyph glyph-name="V.alt02" unicode="&#xe04f;" horiz-adv-x="653" 
d="M687 740l-518 -740h-93v740h74v-642h2l443 642h92z" />
    <glyph glyph-name="V.alt01" unicode="&#xe050;" horiz-adv-x="653" 
d="M577 0h-93l-518 740h92l443 -642h2v642h74v-740z" />
    <glyph glyph-name="W.alt02" unicode="&#xe051;" horiz-adv-x="1159" 
d="M1193 740l-516 -740h-95v609h-2l-411 -609h-93v740h74v-644h2l433 644h71v-644h2l443 644h92z" />
    <glyph glyph-name="Wcircumflex.alt02" unicode="&#xe052;" horiz-adv-x="1159" 
d="M1193 740l-516 -740h-95v609h-2l-411 -609h-93v740h74v-644h2l433 644h71v-644h2l443 644h92zM796 801h-89l-86 73l-88 -73h-91l145 125h66z" />
    <glyph glyph-name="Wgrave.alt02" unicode="&#xe053;" horiz-adv-x="1159" 
d="M1193 740l-516 -740h-95v609h-2l-411 -609h-93v740h74v-644h2l433 644h71v-644h2l443 644h92zM690 839l-33 -58l-198 107l32 60z" />
    <glyph glyph-name="Wacute.alt02" unicode="&#xe054;" horiz-adv-x="1159" 
d="M1193 740l-516 -740h-95v609h-2l-411 -609h-93v740h74v-644h2l433 644h71v-644h2l443 644h92zM768 888l-198 -107l-33 58l199 109z" />
    <glyph glyph-name="Wdieresis.alt02" unicode="&#xe055;" horiz-adv-x="1159" 
d="M1193 740l-516 -740h-95v609h-2l-411 -609h-93v740h74v-644h2l433 644h71v-644h2l443 644h92zM730 801h-74v126h74v-126zM582 801h-74v126h74v-126z" />
    <glyph glyph-name="W.alt01" unicode="&#xe056;" horiz-adv-x="1160" 
d="M1084 0h-94l-410 609h-2v-609h-96l-516 740h92l444 -644h2v644h71l433 -644h2v644h74v-740z" />
    <glyph glyph-name="Wcircumflex.alt01" unicode="&#xe057;" horiz-adv-x="1160" 
d="M1084 0h-94l-410 609h-2v-609h-96l-516 740h92l444 -644h2v644h71l433 -644h2v644h74v-740zM717 801h-89l-86 73l-88 -73h-91l145 125h66z" />
    <glyph glyph-name="Wgrave.alt01" unicode="&#xe058;" horiz-adv-x="1160" 
d="M1084 0h-94l-410 609h-2v-609h-96l-516 740h92l444 -644h2v644h71l433 -644h2v644h74v-740zM639 839l-33 -58l-198 107l32 60z" />
    <glyph glyph-name="Wacute.alt01" unicode="&#xe059;" horiz-adv-x="1160" 
d="M1084 0h-94l-410 609h-2v-609h-96l-516 740h92l444 -644h2v644h71l433 -644h2v644h74v-740zM702 888l-198 -107l-33 58l199 109z" />
    <glyph glyph-name="Wdieresis.alt01" unicode="&#xe05a;" horiz-adv-x="1160" 
d="M1084 0h-94l-410 609h-2v-609h-96l-516 740h92l444 -644h2v644h71l433 -644h2v644h74v-740zM661 801h-74v126h74v-126zM513 801h-74v126h74v-126z" />
    <glyph glyph-name="c.alt01" unicode="&#xe05b;" horiz-adv-x="526" 
d="M468 16c-27 -16 -73 -29 -145 -29c-170 0 -282 133 -282 286c0 152 110 288 283 288c64 0 115 -15 144 -31v-75c-32 22 -73 43 -143 43c-126 0 -213 -102 -213 -225c0 -115 82 -223 214 -223c69 0 113 17 142 39v-73z" />
    <glyph glyph-name="ccedilla.alt01" unicode="&#xe05c;" horiz-adv-x="526" 
d="M468 16c-26 -15 -70 -29 -138 -29h-7h-8l-19 -45c12 5 18 7 32 7c44 0 77 -35 78 -81v-2c0 -52 -41 -88 -86 -88c-38 0 -75 19 -88 71l42 5c6 -25 25 -39 46 -39c29 0 45 24 45 51c0 30 -19 48 -45 48c-28 0 -38 -13 -45 -22l-37 18l36 81c-142 23 -233 144 -233 282
c0 152 110 288 283 288c64 0 115 -15 144 -31v-75c-32 22 -73 43 -143 43c-126 0 -213 -102 -213 -225c0 -115 82 -223 214 -223c69 0 113 17 142 39v-73z" />
    <glyph glyph-name="cacute.alt01" unicode="&#xe05d;" horiz-adv-x="526" 
d="M468 16c-27 -16 -73 -29 -145 -29c-170 0 -282 133 -282 286c0 152 110 288 283 288c64 0 115 -15 144 -31v-75c-32 22 -73 43 -143 43c-126 0 -213 -102 -213 -225c0 -115 82 -223 214 -223c69 0 113 17 142 39v-73zM454 706l-198 -107l-33 58l199 109z" />
    <glyph glyph-name="ccircumflex.alt01" unicode="&#xe05e;" horiz-adv-x="526" 
d="M468 16c-27 -16 -73 -29 -145 -29c-170 0 -282 133 -282 286c0 152 110 288 283 288c64 0 115 -15 144 -31v-75c-32 22 -73 43 -143 43c-126 0 -213 -102 -213 -225c0 -115 82 -223 214 -223c69 0 113 17 142 39v-73zM476 609h-89l-86 73l-88 -73h-91l145 125h66z" />
    <glyph glyph-name="cdotaccent.alt01" unicode="&#xe05f;" horiz-adv-x="526" 
d="M468 16c-27 -16 -73 -29 -145 -29c-170 0 -282 133 -282 286c0 152 110 288 283 288c64 0 115 -15 144 -31v-75c-32 22 -73 43 -143 43c-126 0 -213 -102 -213 -225c0 -115 82 -223 214 -223c69 0 113 17 142 39v-73zM340 609h-74v126h74v-126z" />
    <glyph glyph-name="ccaron.alt01" unicode="&#xe060;" horiz-adv-x="526" 
d="M468 16c-27 -16 -73 -29 -145 -29c-170 0 -282 133 -282 286c0 152 110 288 283 288c64 0 115 -15 144 -31v-75c-32 22 -73 43 -143 43c-126 0 -213 -102 -213 -225c0 -115 82 -223 214 -223c69 0 113 17 142 39v-73zM473 724l-143 -125h-67l-145 125h92l86 -73l88 73h89
z" />
    <glyph glyph-name="e.alt01" unicode="&#xe061;" horiz-adv-x="595" 
d="M564 425l-379 -324c42 -36 94 -51 136 -51c101 0 155 56 193 95v-86c-30 -29 -97 -72 -195 -72c-150 0 -281 119 -281 286c0 164 134 288 282 288c133 0 214 -86 244 -136zM476 433c-22 27 -84 65 -156 65c-109 0 -211 -89 -211 -221c0 -56 12 -94 35 -129z" />
    <glyph glyph-name="eacute.alt01" unicode="&#xe062;" horiz-adv-x="595" 
d="M564 425l-379 -324c42 -36 94 -51 136 -51c101 0 155 56 193 95v-86c-30 -29 -97 -72 -195 -72c-150 0 -281 119 -281 286c0 164 134 288 282 288c133 0 214 -86 244 -136zM476 433c-22 27 -84 65 -156 65c-109 0 -211 -89 -211 -221c0 -56 12 -94 35 -129zM431 706
l-198 -107l-33 58l199 109z" />
    <glyph glyph-name="egrave.alt01" unicode="&#xe063;" horiz-adv-x="595" 
d="M564 425l-379 -324c42 -36 94 -51 136 -51c101 0 155 56 193 95v-86c-30 -29 -97 -72 -195 -72c-150 0 -281 119 -281 286c0 164 134 288 282 288c133 0 214 -86 244 -136zM476 433c-22 27 -84 65 -156 65c-109 0 -211 -89 -211 -221c0 -56 12 -94 35 -129zM390 657
l-33 -58l-198 107l32 60z" />
    <glyph glyph-name="ecircumflex.alt01" unicode="&#xe064;" horiz-adv-x="595" 
d="M564 425l-379 -324c42 -36 94 -51 136 -51c101 0 155 56 193 95v-86c-30 -29 -97 -72 -195 -72c-150 0 -281 119 -281 286c0 164 134 288 282 288c133 0 214 -86 244 -136zM476 433c-22 27 -84 65 -156 65c-109 0 -211 -89 -211 -221c0 -56 12 -94 35 -129zM336 752
l175 -133h-84l-119 82l-119 -82h-84l176 133h55z" />
    <glyph glyph-name="edieresis.alt01" unicode="&#xe065;" horiz-adv-x="595" 
d="M564 425l-379 -324c42 -36 94 -51 136 -51c101 0 155 56 193 95v-86c-30 -29 -97 -72 -195 -72c-150 0 -281 119 -281 286c0 164 134 288 282 288c133 0 214 -86 244 -136zM476 433c-22 27 -84 65 -156 65c-109 0 -211 -89 -211 -221c0 -56 12 -94 35 -129zM248 748v-128
h-73v128h73zM436 748v-128h-72v128h72z" />
    <glyph glyph-name="emacron.alt01" unicode="&#xe066;" horiz-adv-x="595" 
d="M564 425l-379 -324c42 -36 94 -51 136 -51c101 0 155 56 193 95v-86c-30 -29 -97 -72 -195 -72c-150 0 -281 119 -281 286c0 164 134 288 282 288c133 0 214 -86 244 -136zM476 433c-22 27 -84 65 -156 65c-109 0 -211 -89 -211 -221c0 -56 12 -94 35 -129zM466 619h-338
v67h338v-67z" />
    <glyph glyph-name="ebreve.alt01" unicode="&#xe067;" horiz-adv-x="595" 
d="M564 425l-379 -324c42 -36 94 -51 136 -51c101 0 155 56 193 95v-86c-30 -29 -97 -72 -195 -72c-150 0 -281 119 -281 286c0 164 134 288 282 288c133 0 214 -86 244 -136zM476 433c-22 27 -84 65 -156 65c-109 0 -211 -89 -211 -221c0 -56 12 -94 35 -129zM484 704
c-28 -77 -99 -103 -175 -103s-146 26 -174 103h65c25 -34 69 -46 109 -46s85 12 110 46h65z" />
    <glyph glyph-name="edotaccent.alt01" unicode="&#xe068;" horiz-adv-x="595" 
d="M564 425l-379 -324c42 -36 94 -51 136 -51c101 0 155 56 193 95v-86c-30 -29 -97 -72 -195 -72c-150 0 -281 119 -281 286c0 164 134 288 282 288c133 0 214 -86 244 -136zM476 433c-22 27 -84 65 -156 65c-109 0 -211 -89 -211 -221c0 -56 12 -94 35 -129zM338 609h-74
v126h74v-126z" />
    <glyph glyph-name="eogonek.alt01" unicode="&#xe069;" horiz-adv-x="595" 
d="M425 -182c-17 -6 -33 -9 -51 -9c-54 0 -104 31 -104 90c0 41 23 67 52 88h-3c-150 0 -281 119 -281 286c0 164 134 288 282 288c133 0 214 -86 244 -136l-379 -324c42 -36 94 -51 136 -51c101 0 155 56 193 95v-86c-23 -22 -67 -52 -129 -65c-29 -22 -66 -53 -66 -92
c0 -32 29 -50 58 -50c16 0 33 4 48 10v-44zM476 433c-22 27 -84 65 -156 65c-109 0 -211 -89 -211 -221c0 -56 12 -94 35 -129z" />
    <glyph glyph-name="ecaron.alt01" unicode="&#xe06a;" horiz-adv-x="595" 
d="M564 425l-379 -324c42 -36 94 -51 136 -51c101 0 155 56 193 95v-86c-30 -29 -97 -72 -195 -72c-150 0 -281 119 -281 286c0 164 134 288 282 288c133 0 214 -86 244 -136zM476 433c-22 27 -84 65 -156 65c-109 0 -211 -89 -211 -221c0 -56 12 -94 35 -129zM479 734
l-143 -125h-67l-145 125h92l86 -73l88 73h89z" />
    <glyph glyph-name="f.alt01" unicode="&#xe06b;" horiz-adv-x="239" 
d="M314 688c-138 0 -140 -85 -140 -137v-4v-547h-70v484h-85v63h85c2 76 8 204 210 206v-65z" />
    <glyph glyph-name="f.alt02" unicode="&#xe06c;" horiz-adv-x="275" 
d="M275 484h-140v-484h-70v547c0 76 8 204 210 206v-65c-138 0 -140 -85 -140 -137v-4h140v-63z" />
    <glyph glyph-name="k.alt01" unicode="&#xe06d;" horiz-adv-x="502" 
d="M498 0h-90l-180 216l-88 -112v-104h-70v740h70v-527h2l255 334h90l-216 -276z" />
    <glyph glyph-name="kcommaaccent.alt01" unicode="&#xe06e;" horiz-adv-x="502" 
d="M498 0h-90l-180 216l-88 -112v-104h-70v740h70v-527h2l255 334h90l-216 -276zM306 -53l-77 -169h-74l77 169h74z" />
    <glyph glyph-name="k.alt02" unicode="&#xe06f;" horiz-adv-x="486" 
d="M142 274l224 273h87l-228 -269l257 -278h-92zM140 740v-740h-70v740h70z" />
    <glyph glyph-name="kcommaaccent.alt02" unicode="&#xe070;" horiz-adv-x="486" 
d="M142 274l224 273h87l-228 -269l257 -278h-92zM140 740v-740h-70v740h70zM298 -53l-77 -169h-74l77 169h74z" />
    <glyph glyph-name="t.alt01" unicode="&#xe071;" horiz-adv-x="264" 
d="M199 0h-70v484h-115v63h115v193h70v-740z" />
    <glyph glyph-name="tcaron.alt01" unicode="&#xe072;" horiz-adv-x="367" 
d="M199 0h-70v484h-115v63h115v193h70v-740zM392 770l-77 -169h-74l77 169h74z" />
    <glyph glyph-name="tcedilla.alt01" unicode="&#xe073;" horiz-adv-x="264" 
d="M199 0h-70v484h-115v63h115v193h70v-740zM211 -53l-77 -169h-74l77 169h74z" />
    <glyph glyph-name="tcommaaccent.alt01" unicode="&#xe074;" horiz-adv-x="264" 
d="M199 0h-70v484h-115v63h115v193h70v-740zM218 -53l-77 -169h-74l77 169h74z" />
    <glyph glyph-name="t.alt02" unicode="&#xe075;" horiz-adv-x="275" 
d="M266 484h-131v-484h-70v740h70v-193h131v-63z" />
    <glyph glyph-name="tcaron.alt02" unicode="&#xe076;" horiz-adv-x="318" 
d="M266 484h-131v-484h-70v740h70v-193h131v-63zM343 770l-77 -169h-74l77 169h74z" />
    <glyph glyph-name="tcedilla.alt02" unicode="&#xe077;" horiz-adv-x="275" 
d="M266 484h-131v-484h-70v740h70v-193h131v-63zM143 -53l-77 -169h-74l77 169h74z" />
    <glyph glyph-name="tcommaaccent.alt02" unicode="&#xe078;" horiz-adv-x="275" 
d="M266 484h-131v-484h-70v740h70v-193h131v-63zM163 -53l-77 -169h-74l77 169h74z" />
    <glyph glyph-name="v.alt02" unicode="&#xe079;" horiz-adv-x="521" 
d="M543 547l-378 -547h-100v547h70v-467h2l322 467h84z" />
    <glyph glyph-name="v.alt01" unicode="&#xe07a;" horiz-adv-x="521" 
d="M456 0h-100l-378 547h84l322 -467h2v467h70v-547z" />
    <glyph glyph-name="w.alt02" unicode="&#xe07b;" horiz-adv-x="897" 
d="M919 547l-381 -547h-88v429h-3l-295 -429h-87v547h70v-455h2l313 455h70v-450h2l314 450h83z" />
    <glyph glyph-name="wcircumflex.alt02" unicode="&#xe07c;" horiz-adv-x="897" 
d="M919 547l-381 -547h-88v429h-3l-295 -429h-87v547h70v-455h2l313 455h70v-450h2l314 450h83zM658 609h-89l-86 73l-88 -73h-91l145 125h66z" />
    <glyph glyph-name="wgrave.alt02" unicode="&#xe07d;" horiz-adv-x="897" 
d="M919 547l-381 -547h-88v429h-3l-295 -429h-87v547h70v-455h2l313 455h70v-450h2l314 450h83zM559 657l-33 -58l-198 107l32 60z" />
    <glyph glyph-name="wacute.alt02" unicode="&#xe07e;" horiz-adv-x="897" 
d="M919 547l-381 -547h-88v429h-3l-295 -429h-87v547h70v-455h2l313 455h70v-450h2l314 450h83zM620 706l-198 -107l-33 58l199 109z" />
    <glyph glyph-name="wdieresis.alt02" unicode="&#xe07f;" horiz-adv-x="897" 
d="M919 547l-381 -547h-88v429h-3l-295 -429h-87v547h70v-455h2l313 455h70v-450h2l314 450h83zM594 619h-74v126h74v-126zM446 619h-74v126h74v-126z" />
    <glyph glyph-name="w.alt01" unicode="&#xe080;" horiz-adv-x="897" 
d="M832 0h-87l-295 429h-3v-429h-88l-381 547h83l314 -450h2v450h70l313 -455h2v455h70v-547z" />
    <glyph glyph-name="wcircumflex.alt01" unicode="&#xe081;" horiz-adv-x="897" 
d="M832 0h-87l-295 429h-3v-429h-88l-381 547h83l314 -450h2v450h70l313 -455h2v455h70v-547zM585 609h-89l-86 73l-88 -73h-91l145 125h66z" />
    <glyph glyph-name="wgrave.alt01" unicode="&#xe082;" horiz-adv-x="897" 
d="M832 0h-87l-295 429h-3v-429h-88l-381 547h83l314 -450h2v450h70l313 -455h2v455h70v-547zM509 657l-33 -58l-198 107l32 60z" />
    <glyph glyph-name="wacute.alt01" unicode="&#xe083;" horiz-adv-x="897" 
d="M832 0h-87l-295 429h-3v-429h-88l-381 547h83l314 -450h2v450h70l313 -455h2v455h70v-547zM570 706l-198 -107l-33 58l199 109z" />
    <glyph glyph-name="wdieresis.alt01" unicode="&#xe084;" horiz-adv-x="897" 
d="M832 0h-87l-295 429h-3v-429h-88l-381 547h83l314 -450h2v450h70l313 -455h2v455h70v-547zM524 619h-74v126h74v-126zM376 619h-74v126h74v-126z" />
    <glyph glyph-name="y.alt01" unicode="&#xe085;" horiz-adv-x="529" 
d="M550 547l-515 -739h-84l114 162v577h70v-475h4l327 475h84z" />
    <glyph glyph-name="yacute.alt01" unicode="&#xe086;" horiz-adv-x="529" 
d="M550 547l-515 -739h-84l114 162v577h70v-475h4l327 475h84zM487 706l-198 -107l-33 58l199 109z" />
    <glyph glyph-name="ydieresis.alt01" unicode="&#xe087;" horiz-adv-x="529" 
d="M550 547l-515 -739h-84l114 162v577h70v-475h4l327 475h84zM244 748v-128h-72v128h72zM432 748v-128h-72v128h72z" />
    <glyph glyph-name="ycircumflex.alt01" unicode="&#xe088;" horiz-adv-x="529" 
d="M550 547l-515 -739h-84l114 162v577h70v-475h4l327 475h84zM481 609h-89l-86 73l-88 -73h-91l145 125h66z" />
    <glyph glyph-name="ygrave.alt01" unicode="&#xe089;" horiz-adv-x="529" 
d="M550 547l-515 -739h-84l114 162v577h70v-475h4l327 475h84zM355 657l-33 -58l-198 107l32 60z" />
    <glyph glyph-name="C_A" unicode="&#xe08a;" horiz-adv-x="1037" 
d="M961 0h-74v286h-254l-158 -227c114 12 194 81 246 162h82c-68 -134 -191 -235 -378 -235c-211 0 -382 171 -382 386c0 219 174 382 383 382c97 0 196 -31 276 -102l-43 -57c-61 52 -128 91 -232 91c-172 0 -310 -137 -310 -315c0 -161 115 -295 267 -314l476 683h101
v-740zM887 353v303h-2l-206 -303h208z" />
    <glyph glyph-name="C_Aacute" unicode="&#xe08b;" horiz-adv-x="1037" 
d="M961 0h-74v286h-254l-158 -227c114 12 194 81 246 162h82c-68 -134 -191 -235 -378 -235c-211 0 -382 171 -382 386c0 219 174 382 383 382c97 0 196 -31 276 -102l-43 -57c-61 52 -128 91 -232 91c-172 0 -310 -137 -310 -315c0 -161 115 -295 267 -314l476 683h101
v-740zM887 353v303h-2l-206 -303h208zM1051 888l-198 -107l-33 58l199 109z" />
    <glyph glyph-name="C_Agrave" unicode="&#xe08c;" horiz-adv-x="1037" 
d="M961 0h-74v286h-254l-158 -227c114 12 194 81 246 162h82c-68 -134 -191 -235 -378 -235c-211 0 -382 171 -382 386c0 219 174 382 383 382c97 0 196 -31 276 -102l-43 -57c-61 52 -128 91 -232 91c-172 0 -310 -137 -310 -315c0 -161 115 -295 267 -314l476 683h101
v-740zM887 353v303h-2l-206 -303h208zM985 839l-33 -58l-198 107l32 60z" />
    <glyph glyph-name="C_Acircumflex" unicode="&#xe08d;" horiz-adv-x="1037" 
d="M961 0h-74v286h-254l-158 -227c114 12 194 81 246 162h82c-68 -134 -191 -235 -378 -235c-211 0 -382 171 -382 386c0 219 174 382 383 382c97 0 196 -31 276 -102l-43 -57c-61 52 -128 91 -232 91c-172 0 -310 -137 -310 -315c0 -161 115 -295 267 -314l476 683h101
v-740zM887 353v303h-2l-206 -303h208zM1063 801h-89l-86 73l-88 -73h-91l145 125h66z" />
    <glyph glyph-name="C_Adieresis" unicode="&#xe08e;" horiz-adv-x="1037" 
d="M961 0h-74v286h-254l-158 -227c114 12 194 81 246 162h82c-68 -134 -191 -235 -378 -235c-211 0 -382 171 -382 386c0 219 174 382 383 382c97 0 196 -31 276 -102l-43 -57c-61 52 -128 91 -232 91c-172 0 -310 -137 -310 -315c0 -161 115 -295 267 -314l476 683h101
v-740zM887 353v303h-2l-206 -303h208zM1011 801h-74v126h74v-126zM863 801h-74v126h74v-126z" />
    <glyph glyph-name="C_Atilde" unicode="&#xe08f;" horiz-adv-x="1037" 
d="M961 0h-74v286h-254l-158 -227c114 12 194 81 246 162h82c-68 -134 -191 -235 -378 -235c-211 0 -382 171 -382 386c0 219 174 382 383 382c97 0 196 -31 276 -102l-43 -57c-61 52 -128 91 -232 91c-172 0 -310 -137 -310 -315c0 -161 115 -295 267 -314l476 683h101
v-740zM887 353v303h-2l-206 -303h208zM1053 842c-27 -20 -64 -39 -98 -39c-60 0 -99 41 -145 41c-25 0 -49 -13 -67 -30l-35 50c29 27 64 42 104 42c58 0 96 -41 142 -41c24 0 43 14 63 26z" />
    <glyph glyph-name="C_Amacron" unicode="&#xe090;" horiz-adv-x="1037" 
d="M961 0h-74v286h-254l-158 -227c114 12 194 81 246 162h82c-68 -134 -191 -235 -378 -235c-211 0 -382 171 -382 386c0 219 174 382 383 382c97 0 196 -31 276 -102l-43 -57c-61 52 -128 91 -232 91c-172 0 -310 -137 -310 -315c0 -161 115 -295 267 -314l476 683h101
v-740zM887 353v303h-2l-206 -303h208zM1049 821h-338v67h338v-67z" />
    <glyph glyph-name="C_Abreve" unicode="&#xe091;" horiz-adv-x="1037" 
d="M961 0h-74v286h-254l-158 -227c114 12 194 81 246 162h82c-68 -134 -191 -235 -378 -235c-211 0 -382 171 -382 386c0 219 174 382 383 382c97 0 196 -31 276 -102l-43 -57c-61 52 -128 91 -232 91c-172 0 -310 -137 -310 -315c0 -161 115 -295 267 -314l476 683h101
v-740zM887 353v303h-2l-206 -303h208zM1087 906c-28 -77 -99 -103 -175 -103s-146 26 -174 103h65c25 -34 69 -46 109 -46s85 12 110 46h65z" />
    <glyph glyph-name="C_Aogonek" unicode="&#xe092;" horiz-adv-x="1037" 
d="M984 -182c-17 -6 -33 -9 -51 -9c-54 0 -104 31 -104 90c0 49 34 77 72 101h-14v286h-254l-158 -227c114 12 194 81 246 162h82c-68 -134 -191 -235 -378 -235c-211 0 -382 171 -382 386c0 219 174 382 383 382c97 0 196 -31 276 -102l-43 -57c-61 52 -128 91 -232 91
c-172 0 -310 -137 -310 -315c0 -161 115 -295 267 -314l476 683h101v-740h-8c-30 -23 -75 -56 -75 -98c0 -32 29 -50 58 -50c16 0 33 4 48 10v-44zM887 353v303h-2l-206 -303h208z" />
    <glyph glyph-name="Ccedilla_A" unicode="&#xe093;" horiz-adv-x="1037" 
d="M496 -138c0 -53 -42 -84 -92 -84c-46 0 -76 33 -83 77l42 2c4 -23 22 -42 46 -42c30 0 46 24 46 52c0 31 -18 47 -48 47c-18 0 -29 -6 -40 -19l-36 21l39 74c-185 26 -327 186 -327 382c0 219 174 382 383 382c97 0 196 -31 276 -102l-43 -57c-61 52 -128 91 -232 91
c-172 0 -310 -137 -310 -315c0 -161 115 -295 267 -314l476 683h101v-740h-74v286h-254l-158 -227c114 12 194 81 246 162h82c-68 -134 -191 -235 -378 -235c-5 0 -9 1 -13 1l-21 -43c11 3 21 4 33 4c47 0 72 -43 72 -86zM887 353v303h-2l-206 -303h208z" />
    <glyph glyph-name="Ccedilla_Aacute" unicode="&#xe094;" horiz-adv-x="1037" 
d="M496 -138c0 -53 -42 -84 -92 -84c-46 0 -76 33 -83 77l42 2c4 -23 22 -42 46 -42c30 0 46 24 46 52c0 31 -18 47 -48 47c-18 0 -29 -6 -40 -19l-36 21l39 74c-185 26 -327 186 -327 382c0 219 174 382 383 382c97 0 196 -31 276 -102l-43 -57c-61 52 -128 91 -232 91
c-172 0 -310 -137 -310 -315c0 -161 115 -295 267 -314l476 683h101v-740h-74v286h-254l-158 -227c114 12 194 81 246 162h82c-68 -134 -191 -235 -378 -235c-5 0 -9 1 -13 1l-21 -43c11 3 21 4 33 4c47 0 72 -43 72 -86zM887 353v303h-2l-206 -303h208zM1033 888l-198 -107
l-33 58l199 109z" />
    <glyph glyph-name="Cacute_A" unicode="&#xe095;" horiz-adv-x="1037" 
d="M961 0h-74v286h-254l-158 -227c114 12 194 81 246 162h82c-68 -134 -191 -235 -378 -235c-211 0 -382 171 -382 386c0 219 174 382 383 382c97 0 196 -31 276 -102l-43 -57c-61 52 -128 91 -232 91c-172 0 -310 -137 -310 -315c0 -161 115 -295 267 -314l476 683h101
v-740zM887 353v303h-2l-206 -303h208zM560 888l-198 -107l-33 58l199 109z" />
    <glyph glyph-name="Cacute_Aogonek" unicode="&#xe096;" horiz-adv-x="1037" 
d="M984 -182c-17 -6 -33 -9 -51 -9c-54 0 -104 31 -104 90c0 49 34 77 72 101h-14v286h-254l-158 -227c114 12 194 81 246 162h82c-68 -134 -191 -235 -378 -235c-211 0 -382 171 -382 386c0 219 174 382 383 382c97 0 196 -31 276 -102l-43 -57c-61 52 -128 91 -232 91
c-172 0 -310 -137 -310 -315c0 -161 115 -295 267 -314l476 683h101v-740h-8c-30 -23 -75 -56 -75 -98c0 -32 29 -50 58 -50c16 0 33 4 48 10v-44zM887 353v303h-2l-206 -303h208zM560 888l-198 -107l-33 58l199 109z" />
    <glyph glyph-name="Ccircumflex_A" unicode="&#xe097;" horiz-adv-x="1037" 
d="M961 0h-74v286h-254l-158 -227c114 12 194 81 246 162h82c-68 -134 -191 -235 -378 -235c-211 0 -382 171 -382 386c0 219 174 382 383 382c97 0 196 -31 276 -102l-43 -57c-61 52 -128 91 -232 91c-172 0 -310 -137 -310 -315c0 -161 115 -295 267 -314l476 683h101
v-740zM887 353v303h-2l-206 -303h208zM595 801h-89l-86 73l-88 -73h-91l145 125h66z" />
    <glyph glyph-name="Ccircumflex_Amacron" unicode="&#xe098;" horiz-adv-x="1037" 
d="M961 0h-74v286h-254l-158 -227c114 12 194 81 246 162h82c-68 -134 -191 -235 -378 -235c-211 0 -382 171 -382 386c0 219 174 382 383 382c97 0 196 -31 276 -102l-43 -57c-61 52 -128 91 -232 91c-172 0 -310 -137 -310 -315c0 -161 115 -295 267 -314l476 683h101
v-740zM887 353v303h-2l-206 -303h208zM587 801h-89l-86 73l-88 -73h-91l145 125h66zM1048 821h-338v67h338v-67z" />
    <glyph glyph-name="Ccircumflex_Abreve" unicode="&#xe099;" horiz-adv-x="1037" 
d="M961 0h-74v286h-254l-158 -227c114 12 194 81 246 162h82c-68 -134 -191 -235 -378 -235c-211 0 -382 171 -382 386c0 219 174 382 383 382c97 0 196 -31 276 -102l-43 -57c-61 52 -128 91 -232 91c-172 0 -310 -137 -310 -315c0 -161 115 -295 267 -314l476 683h101
v-740zM887 353v303h-2l-206 -303h208zM584 801h-89l-86 73l-88 -73h-91l145 125h66zM1053 906c-28 -77 -99 -103 -175 -103s-146 26 -174 103h65c25 -34 69 -46 109 -46s85 12 110 46h65z" />
    <glyph glyph-name="Cdotaccent_A" unicode="&#xe09a;" horiz-adv-x="1037" 
d="M961 0h-74v286h-254l-158 -227c114 12 194 81 246 162h82c-68 -134 -191 -235 -378 -235c-211 0 -382 171 -382 386c0 219 174 382 383 382c97 0 196 -31 276 -102l-43 -57c-61 52 -128 91 -232 91c-172 0 -310 -137 -310 -315c0 -161 115 -295 267 -314l476 683h101
v-740zM887 353v303h-2l-206 -303h208zM451 801h-74v126h74v-126z" />
    <glyph glyph-name="Cdotaccent_Agrave" unicode="&#xe09b;" horiz-adv-x="1037" 
d="M961 0h-74v286h-254l-158 -227c114 12 194 81 246 162h82c-68 -134 -191 -235 -378 -235c-211 0 -382 171 -382 386c0 219 174 382 383 382c97 0 196 -31 276 -102l-43 -57c-61 52 -128 91 -232 91c-172 0 -310 -137 -310 -315c0 -161 115 -295 267 -314l476 683h101
v-740zM887 353v303h-2l-206 -303h208zM448 801h-74v126h74v-126zM1003 839l-33 -58l-198 107l32 60z" />
    <glyph glyph-name="Ccaron_A" unicode="&#xe09c;" horiz-adv-x="1037" 
d="M961 0h-74v286h-254l-158 -227c114 12 194 81 246 162h82c-68 -134 -191 -235 -378 -235c-211 0 -382 171 -382 386c0 219 174 382 383 382c97 0 196 -31 276 -102l-43 -57c-61 52 -128 91 -232 91c-172 0 -310 -137 -310 -315c0 -161 115 -295 267 -314l476 683h101
v-740zM887 353v303h-2l-206 -303h208zM586 926l-143 -125h-67l-145 125h92l86 -73l88 73h89z" />
    <glyph glyph-name="Ccaron_Aacute" unicode="&#xe09d;" horiz-adv-x="1037" 
d="M961 0h-74v286h-254l-158 -227c114 12 194 81 246 162h82c-68 -134 -191 -235 -378 -235c-211 0 -382 171 -382 386c0 219 174 382 383 382c97 0 196 -31 276 -102l-43 -57c-61 52 -128 91 -232 91c-172 0 -310 -137 -310 -315c0 -161 115 -295 267 -314l476 683h101
v-740zM887 353v303h-2l-206 -303h208zM582 926l-143 -125h-67l-145 125h92l86 -73l88 73h89zM1051 888l-198 -107l-33 58l199 109z" />
    <glyph glyph-name="Ccaron_Adieresis" unicode="&#xe09e;" horiz-adv-x="1037" 
d="M961 0h-74v286h-254l-158 -227c114 12 194 81 246 162h82c-68 -134 -191 -235 -378 -235c-211 0 -382 171 -382 386c0 219 174 382 383 382c97 0 196 -31 276 -102l-43 -57c-61 52 -128 91 -232 91c-172 0 -310 -137 -310 -315c0 -161 115 -295 267 -314l476 683h101
v-740zM887 353v303h-2l-206 -303h208zM590 926l-143 -125h-67l-145 125h92l86 -73l88 73h89zM1009 801h-74v126h74v-126zM861 801h-74v126h74v-126z" />
    <glyph glyph-name="Ccaron_Amacron" unicode="&#xe09f;" horiz-adv-x="1037" 
d="M961 0h-74v286h-254l-158 -227c114 12 194 81 246 162h82c-68 -134 -191 -235 -378 -235c-211 0 -382 171 -382 386c0 219 174 382 383 382c97 0 196 -31 276 -102l-43 -57c-61 52 -128 91 -232 91c-172 0 -310 -137 -310 -315c0 -161 115 -295 267 -314l476 683h101
v-740zM887 353v303h-2l-206 -303h208zM590 926l-143 -125h-67l-145 125h92l86 -73l88 73h89zM1047 821h-338v67h338v-67z" />
    <glyph glyph-name="Ccaron_Abreve" unicode="&#xe0a0;" horiz-adv-x="1037" 
d="M961 0h-74v286h-254l-158 -227c114 12 194 81 246 162h82c-68 -134 -191 -235 -378 -235c-211 0 -382 171 -382 386c0 219 174 382 383 382c97 0 196 -31 276 -102l-43 -57c-61 52 -128 91 -232 91c-172 0 -310 -137 -310 -315c0 -161 115 -295 267 -314l476 683h101
v-740zM887 353v303h-2l-206 -303h208zM589 926l-143 -125h-67l-145 125h92l86 -73l88 73h89zM1053 906c-28 -77 -99 -103 -175 -103s-146 26 -174 103h65c25 -34 69 -46 109 -46s85 12 110 46h65z" />
    <glyph glyph-name="C_O.alt01" unicode="&#xe0a1;" horiz-adv-x="801" 
d="M674 371c0 -143 -109 -254 -247 -254c-139 0 -248 111 -248 254s109 254 247 254c139 0 248 -112 248 -254zM771 194c-72 -134 -209 -207 -346 -207c-211 0 -382 172 -382 385c0 216 178 380 383 380c159 0 287 -90 343 -202h-84c-51 79 -150 135 -260 135
c-177 0 -308 -152 -308 -315c0 -174 141 -316 308 -316c150 0 237 103 262 140h84zM600 370c0 104 -76 183 -174 183c-103 0 -173 -79 -173 -182c0 -104 73 -183 173 -183c99 0 174 80 174 182z" />
    <glyph glyph-name="C_O" unicode="&#xe0a2;" horiz-adv-x="1217" 
d="M1174 370c0 -218 -185 -383 -392 -383c-63 0 -124 16 -178 43c-57 -29 -118 -43 -174 -43c-207 0 -387 163 -387 382s175 383 386 383c68 0 126 -17 175 -42c55 28 117 43 178 43c208 0 392 -165 392 -383zM1100 369c0 173 -143 317 -318 317c-38 0 -75 -7 -109 -20
c49 -39 82 -84 95 -116h-83c-24 35 -52 61 -80 81c-83 -56 -140 -152 -140 -265c0 -104 55 -199 138 -256c29 20 58 47 85 84h83c-27 -49 -61 -89 -99 -120c34 -13 71 -20 110 -20c171 0 318 139 318 315zM536 74c-88 70 -145 175 -145 292c0 128 58 232 144 300
c-45 16 -86 19 -107 19c-173 0 -311 -152 -311 -317c0 -173 152 -314 312 -314c19 0 59 1 107 20z" />
    <glyph glyph-name="C_Oacute" unicode="&#xe0a3;" horiz-adv-x="1217" 
d="M1174 370c0 -218 -185 -383 -392 -383c-63 0 -124 16 -178 43c-57 -29 -118 -43 -174 -43c-207 0 -387 163 -387 382s175 383 386 383c68 0 126 -17 175 -42c55 28 117 43 178 43c208 0 392 -165 392 -383zM1100 369c0 173 -143 317 -318 317c-38 0 -75 -7 -109 -20
c49 -39 82 -84 95 -116h-83c-24 35 -52 61 -80 81c-83 -56 -140 -152 -140 -265c0 -104 55 -199 138 -256c29 20 58 47 85 84h83c-27 -49 -61 -89 -99 -120c34 -13 71 -20 110 -20c171 0 318 139 318 315zM536 74c-88 70 -145 175 -145 292c0 128 58 232 144 300
c-45 16 -86 19 -107 19c-173 0 -311 -152 -311 -317c0 -173 152 -314 312 -314c19 0 59 1 107 20zM951 888l-198 -107l-33 58l199 109z" />
    <glyph glyph-name="C_Ograve" unicode="&#xe0a4;" horiz-adv-x="1217" 
d="M1174 370c0 -218 -185 -383 -392 -383c-63 0 -124 16 -178 43c-57 -29 -118 -43 -174 -43c-207 0 -387 163 -387 382s175 383 386 383c68 0 126 -17 175 -42c55 28 117 43 178 43c208 0 392 -165 392 -383zM1100 369c0 173 -143 317 -318 317c-38 0 -75 -7 -109 -20
c49 -39 82 -84 95 -116h-83c-24 35 -52 61 -80 81c-83 -56 -140 -152 -140 -265c0 -104 55 -199 138 -256c29 20 58 47 85 84h83c-27 -49 -61 -89 -99 -120c34 -13 71 -20 110 -20c171 0 318 139 318 315zM536 74c-88 70 -145 175 -145 292c0 128 58 232 144 300
c-45 16 -86 19 -107 19c-173 0 -311 -152 -311 -317c0 -173 152 -314 312 -314c19 0 59 1 107 20zM871 839l-33 -58l-198 107l32 60z" />
    <glyph glyph-name="C_Ocircumflex" unicode="&#xe0a5;" horiz-adv-x="1217" 
d="M1174 370c0 -218 -185 -383 -392 -383c-63 0 -124 16 -178 43c-57 -29 -118 -43 -174 -43c-207 0 -387 163 -387 382s175 383 386 383c68 0 126 -17 175 -42c55 28 117 43 178 43c208 0 392 -165 392 -383zM1100 369c0 173 -143 317 -318 317c-38 0 -75 -7 -109 -20
c49 -39 82 -84 95 -116h-83c-24 35 -52 61 -80 81c-83 -56 -140 -152 -140 -265c0 -104 55 -199 138 -256c29 20 58 47 85 84h83c-27 -49 -61 -89 -99 -120c34 -13 71 -20 110 -20c171 0 318 139 318 315zM536 74c-88 70 -145 175 -145 292c0 128 58 232 144 300
c-45 16 -86 19 -107 19c-173 0 -311 -152 -311 -317c0 -173 152 -314 312 -314c19 0 59 1 107 20zM970 801h-89l-86 73l-88 -73h-91l145 125h66z" />
    <glyph glyph-name="C_Odieresis" unicode="&#xe0a6;" horiz-adv-x="1217" 
d="M1174 370c0 -218 -185 -383 -392 -383c-63 0 -124 16 -178 43c-57 -29 -118 -43 -174 -43c-207 0 -387 163 -387 382s175 383 386 383c68 0 126 -17 175 -42c55 28 117 43 178 43c208 0 392 -165 392 -383zM1100 369c0 173 -143 317 -318 317c-38 0 -75 -7 -109 -20
c49 -39 82 -84 95 -116h-83c-24 35 -52 61 -80 81c-83 -56 -140 -152 -140 -265c0 -104 55 -199 138 -256c29 20 58 47 85 84h83c-27 -49 -61 -89 -99 -120c34 -13 71 -20 110 -20c171 0 318 139 318 315zM536 74c-88 70 -145 175 -145 292c0 128 58 232 144 300
c-45 16 -86 19 -107 19c-173 0 -311 -152 -311 -317c0 -173 152 -314 312 -314c19 0 59 1 107 20zM908 801h-74v126h74v-126zM760 801h-74v126h74v-126z" />
    <glyph glyph-name="C_Obreve" unicode="&#xe0a7;" horiz-adv-x="1217" 
d="M1174 370c0 -218 -185 -383 -392 -383c-63 0 -124 16 -178 43c-57 -29 -118 -43 -174 -43c-207 0 -387 163 -387 382s175 383 386 383c68 0 126 -17 175 -42c55 28 117 43 178 43c208 0 392 -165 392 -383zM1100 369c0 173 -143 317 -318 317c-38 0 -75 -7 -109 -20
c49 -39 82 -84 95 -116h-83c-24 35 -52 61 -80 81c-83 -56 -140 -152 -140 -265c0 -104 55 -199 138 -256c29 20 58 47 85 84h83c-27 -49 -61 -89 -99 -120c34 -13 71 -20 110 -20c171 0 318 139 318 315zM536 74c-88 70 -145 175 -145 292c0 128 58 232 144 300
c-45 16 -86 19 -107 19c-173 0 -311 -152 -311 -317c0 -173 152 -314 312 -314c19 0 59 1 107 20zM979 906c-28 -77 -99 -103 -175 -103s-146 26 -174 103h65c25 -34 69 -46 109 -46s85 12 110 46h65z" />
    <glyph glyph-name="C_Otilde" unicode="&#xe0a8;" horiz-adv-x="1217" 
d="M977 842c-27 -20 -64 -39 -98 -39c-60 0 -99 41 -145 41c-25 0 -49 -13 -67 -30l-35 50c29 27 64 42 104 42c58 0 96 -41 142 -41c24 0 43 14 63 26zM1174 370c0 -218 -185 -383 -392 -383c-63 0 -124 16 -178 43c-57 -29 -118 -43 -174 -43c-207 0 -387 163 -387 382
s175 383 386 383c68 0 126 -17 175 -42c55 28 117 43 178 43c208 0 392 -165 392 -383zM1100 369c0 173 -143 317 -318 317c-38 0 -75 -7 -109 -20c49 -39 82 -84 95 -116h-83c-24 35 -52 61 -80 81c-83 -56 -140 -152 -140 -265c0 -104 55 -199 138 -256c29 20 58 47 85 84
h83c-27 -49 -61 -89 -99 -120c34 -13 71 -20 110 -20c171 0 318 139 318 315zM536 74c-88 70 -145 175 -145 292c0 128 58 232 144 300c-45 16 -86 19 -107 19c-173 0 -311 -152 -311 -317c0 -173 152 -314 312 -314c19 0 59 1 107 20z" />
    <glyph glyph-name="C_Omacron" unicode="&#xe0a9;" horiz-adv-x="1217" 
d="M968 821h-338v67h338v-67zM1174 370c0 -218 -185 -383 -392 -383c-63 0 -124 16 -178 43c-57 -29 -118 -43 -174 -43c-207 0 -387 163 -387 382s175 383 386 383c68 0 126 -17 175 -42c55 28 117 43 178 43c208 0 392 -165 392 -383zM1100 369c0 173 -143 317 -318 317
c-38 0 -75 -7 -109 -20c49 -39 82 -84 95 -116h-83c-24 35 -52 61 -80 81c-83 -56 -140 -152 -140 -265c0 -104 55 -199 138 -256c29 20 58 47 85 84h83c-27 -49 -61 -89 -99 -120c34 -13 71 -20 110 -20c171 0 318 139 318 315zM536 74c-88 70 -145 175 -145 292
c0 128 58 232 144 300c-45 16 -86 19 -107 19c-173 0 -311 -152 -311 -317c0 -173 152 -314 312 -314c19 0 59 1 107 20z" />
    <glyph glyph-name="C_Ohungarumlaut" unicode="&#xe0aa;" horiz-adv-x="1217" 
d="M1058 912l-164 -135l-38 46l162 135zM883 912l-164 -135l-38 46l161 135zM1174 370c0 -218 -185 -383 -392 -383c-63 0 -124 16 -178 43c-57 -29 -118 -43 -174 -43c-207 0 -387 163 -387 382s175 383 386 383c68 0 126 -17 175 -42c55 28 117 43 178 43
c208 0 392 -165 392 -383zM1100 369c0 173 -143 317 -318 317c-38 0 -75 -7 -109 -20c49 -39 82 -84 95 -116h-83c-24 35 -52 61 -80 81c-83 -56 -140 -152 -140 -265c0 -104 55 -199 138 -256c29 20 58 47 85 84h83c-27 -49 -61 -89 -99 -120c34 -13 71 -20 110 -20
c171 0 318 139 318 315zM536 74c-88 70 -145 175 -145 292c0 128 58 232 144 300c-45 16 -86 19 -107 19c-173 0 -311 -152 -311 -317c0 -173 152 -314 312 -314c19 0 59 1 107 20z" />
    <glyph glyph-name="Ccedilla_O" unicode="&#xe0ab;" horiz-adv-x="1217" 
d="M486 -138c0 -53 -42 -84 -92 -84c-46 0 -76 33 -83 77l42 2c4 -23 22 -42 46 -42c30 0 46 24 46 52c0 31 -18 47 -48 47c-18 0 -29 -6 -40 -19l-36 21l41 77c-177 31 -319 181 -319 376c0 219 175 383 386 383c68 0 126 -17 175 -42c55 28 117 43 178 43
c208 0 392 -165 392 -383s-185 -383 -392 -383c-63 0 -124 16 -178 43c-57 -29 -118 -43 -174 -43c-9 0 -18 1 -27 1l-22 -44c11 3 21 4 33 4c47 0 72 -43 72 -86zM1100 369c0 173 -143 317 -318 317c-38 0 -75 -7 -109 -20c49 -39 82 -84 95 -116h-83c-24 35 -52 61 -80 81
c-83 -56 -140 -152 -140 -265c0 -104 55 -199 138 -256c29 20 58 47 85 84h83c-27 -49 -61 -89 -99 -120c34 -13 71 -20 110 -20c171 0 318 139 318 315zM536 74c-88 70 -145 175 -145 292c0 128 58 232 144 300c-45 16 -86 19 -107 19c-173 0 -311 -152 -311 -317
c0 -173 152 -314 312 -314c19 0 59 1 107 20z" />
    <glyph glyph-name="Ccedilla_Oacute" unicode="&#xe0ac;" horiz-adv-x="1217" 
d="M486 -138c0 -53 -42 -84 -92 -84c-46 0 -76 33 -83 77l42 2c4 -23 22 -42 46 -42c30 0 46 24 46 52c0 31 -18 47 -48 47c-18 0 -29 -6 -40 -19l-36 21l41 77c-177 31 -319 181 -319 376c0 219 175 383 386 383c68 0 126 -17 175 -42c55 28 117 43 178 43
c208 0 392 -165 392 -383s-185 -383 -392 -383c-63 0 -124 16 -178 43c-57 -29 -118 -43 -174 -43c-9 0 -18 1 -27 1l-22 -44c11 3 21 4 33 4c47 0 72 -43 72 -86zM1100 369c0 173 -143 317 -318 317c-38 0 -75 -7 -109 -20c49 -39 82 -84 95 -116h-83c-24 35 -52 61 -80 81
c-83 -56 -140 -152 -140 -265c0 -104 55 -199 138 -256c29 20 58 47 85 84h83c-27 -49 -61 -89 -99 -120c34 -13 71 -20 110 -20c171 0 318 139 318 315zM536 74c-88 70 -145 175 -145 292c0 128 58 232 144 300c-45 16 -86 19 -107 19c-173 0 -311 -152 -311 -317
c0 -173 152 -314 312 -314c19 0 59 1 107 20zM933 888l-198 -107l-33 58l199 109z" />
    <glyph glyph-name="Ccedilla_Ograve" unicode="&#xe0ad;" horiz-adv-x="1217" 
d="M486 -138c0 -53 -42 -84 -92 -84c-46 0 -76 33 -83 77l42 2c4 -23 22 -42 46 -42c30 0 46 24 46 52c0 31 -18 47 -48 47c-18 0 -29 -6 -40 -19l-36 21l41 77c-177 31 -319 181 -319 376c0 219 175 383 386 383c68 0 126 -17 175 -42c55 28 117 43 178 43
c208 0 392 -165 392 -383s-185 -383 -392 -383c-63 0 -124 16 -178 43c-57 -29 -118 -43 -174 -43c-9 0 -18 1 -27 1l-22 -44c11 3 21 4 33 4c47 0 72 -43 72 -86zM1100 369c0 173 -143 317 -318 317c-38 0 -75 -7 -109 -20c49 -39 82 -84 95 -116h-83c-24 35 -52 61 -80 81
c-83 -56 -140 -152 -140 -265c0 -104 55 -199 138 -256c29 20 58 47 85 84h83c-27 -49 -61 -89 -99 -120c34 -13 71 -20 110 -20c171 0 318 139 318 315zM536 74c-88 70 -145 175 -145 292c0 128 58 232 144 300c-45 16 -86 19 -107 19c-173 0 -311 -152 -311 -317
c0 -173 152 -314 312 -314c19 0 59 1 107 20zM866 839l-33 -58l-198 107l32 60z" />
    <glyph glyph-name="Ccedilla_Ocircumflex" unicode="&#xe0ae;" horiz-adv-x="1217" 
d="M486 -138c0 -53 -42 -84 -92 -84c-46 0 -76 33 -83 77l42 2c4 -23 22 -42 46 -42c30 0 46 24 46 52c0 31 -18 47 -48 47c-18 0 -29 -6 -40 -19l-36 21l41 77c-177 31 -319 181 -319 376c0 219 175 383 386 383c68 0 126 -17 175 -42c55 28 117 43 178 43
c208 0 392 -165 392 -383s-185 -383 -392 -383c-63 0 -124 16 -178 43c-57 -29 -118 -43 -174 -43c-9 0 -18 1 -27 1l-22 -44c11 3 21 4 33 4c47 0 72 -43 72 -86zM1100 369c0 173 -143 317 -318 317c-38 0 -75 -7 -109 -20c49 -39 82 -84 95 -116h-83c-24 35 -52 61 -80 81
c-83 -56 -140 -152 -140 -265c0 -104 55 -199 138 -256c29 20 58 47 85 84h83c-27 -49 -61 -89 -99 -120c34 -13 71 -20 110 -20c171 0 318 139 318 315zM536 74c-88 70 -145 175 -145 292c0 128 58 232 144 300c-45 16 -86 19 -107 19c-173 0 -311 -152 -311 -317
c0 -173 152 -314 312 -314c19 0 59 1 107 20zM976 801h-89l-86 73l-88 -73h-91l145 125h66z" />
    <glyph glyph-name="Ccedilla_Odieresis" unicode="&#xe0af;" horiz-adv-x="1217" 
d="M486 -138c0 -53 -42 -84 -92 -84c-46 0 -76 33 -83 77l42 2c4 -23 22 -42 46 -42c30 0 46 24 46 52c0 31 -18 47 -48 47c-18 0 -29 -6 -40 -19l-36 21l41 77c-177 31 -319 181 -319 376c0 219 175 383 386 383c68 0 126 -17 175 -42c55 28 117 43 178 43
c208 0 392 -165 392 -383s-185 -383 -392 -383c-63 0 -124 16 -178 43c-57 -29 -118 -43 -174 -43c-9 0 -18 1 -27 1l-22 -44c11 3 21 4 33 4c47 0 72 -43 72 -86zM1100 369c0 173 -143 317 -318 317c-38 0 -75 -7 -109 -20c49 -39 82 -84 95 -116h-83c-24 35 -52 61 -80 81
c-83 -56 -140 -152 -140 -265c0 -104 55 -199 138 -256c29 20 58 47 85 84h83c-27 -49 -61 -89 -99 -120c34 -13 71 -20 110 -20c171 0 318 139 318 315zM536 74c-88 70 -145 175 -145 292c0 128 58 232 144 300c-45 16 -86 19 -107 19c-173 0 -311 -152 -311 -317
c0 -173 152 -314 312 -314c19 0 59 1 107 20zM909 801h-74v126h74v-126zM761 801h-74v126h74v-126z" />
    <glyph glyph-name="Cacute_O" unicode="&#xe0b0;" horiz-adv-x="1217" 
d="M568 888l-198 -107l-33 58l199 109zM1174 370c0 -218 -185 -383 -392 -383c-63 0 -124 16 -178 43c-57 -29 -118 -43 -174 -43c-207 0 -387 163 -387 382s175 383 386 383c68 0 126 -17 175 -42c55 28 117 43 178 43c208 0 392 -165 392 -383zM1100 369
c0 173 -143 317 -318 317c-38 0 -75 -7 -109 -20c49 -39 82 -84 95 -116h-83c-24 35 -52 61 -80 81c-83 -56 -140 -152 -140 -265c0 -104 55 -199 138 -256c29 20 58 47 85 84h83c-27 -49 -61 -89 -99 -120c34 -13 71 -20 110 -20c171 0 318 139 318 315zM536 74
c-88 70 -145 175 -145 292c0 128 58 232 144 300c-45 16 -86 19 -107 19c-173 0 -311 -152 -311 -317c0 -173 152 -314 312 -314c19 0 59 1 107 20z" />
    <glyph glyph-name="Cacute_Oacute" unicode="&#xe0b1;" horiz-adv-x="1217" 
d="M539 888l-198 -107l-33 58l199 109zM940 888l-198 -107l-33 58l199 109zM1174 370c0 -218 -185 -383 -392 -383c-63 0 -124 16 -178 43c-57 -29 -118 -43 -174 -43c-207 0 -387 163 -387 382s175 383 386 383c68 0 126 -17 175 -42c55 28 117 43 178 43
c208 0 392 -165 392 -383zM1100 369c0 173 -143 317 -318 317c-38 0 -75 -7 -109 -20c49 -39 82 -84 95 -116h-83c-24 35 -52 61 -80 81c-83 -56 -140 -152 -140 -265c0 -104 55 -199 138 -256c29 20 58 47 85 84h83c-27 -49 -61 -89 -99 -120c34 -13 71 -20 110 -20
c171 0 318 139 318 315zM536 74c-88 70 -145 175 -145 292c0 128 58 232 144 300c-45 16 -86 19 -107 19c-173 0 -311 -152 -311 -317c0 -173 152 -314 312 -314c19 0 59 1 107 20z" />
    <glyph glyph-name="Ccircumflex_O" unicode="&#xe0b2;" horiz-adv-x="1217" 
d="M568 801h-89l-86 73l-88 -73h-91l145 125h66zM1174 370c0 -218 -185 -383 -392 -383c-63 0 -124 16 -178 43c-57 -29 -118 -43 -174 -43c-207 0 -387 163 -387 382s175 383 386 383c68 0 126 -17 175 -42c55 28 117 43 178 43c208 0 392 -165 392 -383zM1100 369
c0 173 -143 317 -318 317c-38 0 -75 -7 -109 -20c49 -39 82 -84 95 -116h-83c-24 35 -52 61 -80 81c-83 -56 -140 -152 -140 -265c0 -104 55 -199 138 -256c29 20 58 47 85 84h83c-27 -49 -61 -89 -99 -120c34 -13 71 -20 110 -20c171 0 318 139 318 315zM536 74
c-88 70 -145 175 -145 292c0 128 58 232 144 300c-45 16 -86 19 -107 19c-173 0 -311 -152 -311 -317c0 -173 152 -314 312 -314c19 0 59 1 107 20z" />
    <glyph glyph-name="Ccircumflex_Odieresis" unicode="&#xe0b3;" horiz-adv-x="1217" 
d="M561 801h-89l-86 73l-88 -73h-91l145 125h66zM910 801h-74v126h74v-126zM762 801h-74v126h74v-126zM1174 370c0 -218 -185 -383 -392 -383c-63 0 -124 16 -178 43c-57 -29 -118 -43 -174 -43c-207 0 -387 163 -387 382s175 383 386 383c68 0 126 -17 175 -42
c55 28 117 43 178 43c208 0 392 -165 392 -383zM1100 369c0 173 -143 317 -318 317c-38 0 -75 -7 -109 -20c49 -39 82 -84 95 -116h-83c-24 35 -52 61 -80 81c-83 -56 -140 -152 -140 -265c0 -104 55 -199 138 -256c29 20 58 47 85 84h83c-27 -49 -61 -89 -99 -120
c34 -13 71 -20 110 -20c171 0 318 139 318 315zM536 74c-88 70 -145 175 -145 292c0 128 58 232 144 300c-45 16 -86 19 -107 19c-173 0 -311 -152 -311 -317c0 -173 152 -314 312 -314c19 0 59 1 107 20z" />
    <glyph glyph-name="Ccircumflex_Obreve" unicode="&#xe0b4;" horiz-adv-x="1217" 
d="M568 801h-89l-86 73l-88 -73h-91l145 125h66zM965 906c-28 -77 -99 -103 -175 -103s-146 26 -174 103h65c25 -34 69 -46 109 -46s85 12 110 46h65zM1174 370c0 -218 -185 -383 -392 -383c-63 0 -124 16 -178 43c-57 -29 -118 -43 -174 -43c-207 0 -387 163 -387 382
s175 383 386 383c68 0 126 -17 175 -42c55 28 117 43 178 43c208 0 392 -165 392 -383zM1100 369c0 173 -143 317 -318 317c-38 0 -75 -7 -109 -20c49 -39 82 -84 95 -116h-83c-24 35 -52 61 -80 81c-83 -56 -140 -152 -140 -265c0 -104 55 -199 138 -256c29 20 58 47 85 84
h83c-27 -49 -61 -89 -99 -120c34 -13 71 -20 110 -20c171 0 318 139 318 315zM536 74c-88 70 -145 175 -145 292c0 128 58 232 144 300c-45 16 -86 19 -107 19c-173 0 -311 -152 -311 -317c0 -173 152 -314 312 -314c19 0 59 1 107 20z" />
    <glyph glyph-name="Ccircumflex_Omacron" unicode="&#xe0b5;" horiz-adv-x="1217" 
d="M561 801h-89l-86 73l-88 -73h-91l145 125h66zM963 821h-338v67h338v-67zM1174 370c0 -218 -185 -383 -392 -383c-63 0 -124 16 -178 43c-57 -29 -118 -43 -174 -43c-207 0 -387 163 -387 382s175 383 386 383c68 0 126 -17 175 -42c55 28 117 43 178 43
c208 0 392 -165 392 -383zM1100 369c0 173 -143 317 -318 317c-38 0 -75 -7 -109 -20c49 -39 82 -84 95 -116h-83c-24 35 -52 61 -80 81c-83 -56 -140 -152 -140 -265c0 -104 55 -199 138 -256c29 20 58 47 85 84h83c-27 -49 -61 -89 -99 -120c34 -13 71 -20 110 -20
c171 0 318 139 318 315zM536 74c-88 70 -145 175 -145 292c0 128 58 232 144 300c-45 16 -86 19 -107 19c-173 0 -311 -152 -311 -317c0 -173 152 -314 312 -314c19 0 59 1 107 20z" />
    <glyph glyph-name="Cdotaccent_O" unicode="&#xe0b6;" horiz-adv-x="1217" 
d="M444 801h-74v126h74v-126zM1174 370c0 -218 -185 -383 -392 -383c-63 0 -124 16 -178 43c-57 -29 -118 -43 -174 -43c-207 0 -387 163 -387 382s175 383 386 383c68 0 126 -17 175 -42c55 28 117 43 178 43c208 0 392 -165 392 -383zM1100 369c0 173 -143 317 -318 317
c-38 0 -75 -7 -109 -20c49 -39 82 -84 95 -116h-83c-24 35 -52 61 -80 81c-83 -56 -140 -152 -140 -265c0 -104 55 -199 138 -256c29 20 58 47 85 84h83c-27 -49 -61 -89 -99 -120c34 -13 71 -20 110 -20c171 0 318 139 318 315zM536 74c-88 70 -145 175 -145 292
c0 128 58 232 144 300c-45 16 -86 19 -107 19c-173 0 -311 -152 -311 -317c0 -173 152 -314 312 -314c19 0 59 1 107 20z" />
    <glyph glyph-name="Ccaron_O" unicode="&#xe0b7;" horiz-adv-x="1217" 
d="M572 926l-143 -125h-67l-145 125h92l86 -73l88 73h89zM1174 370c0 -218 -185 -383 -392 -383c-63 0 -124 16 -178 43c-57 -29 -118 -43 -174 -43c-207 0 -387 163 -387 382s175 383 386 383c68 0 126 -17 175 -42c55 28 117 43 178 43c208 0 392 -165 392 -383zM1100 369
c0 173 -143 317 -318 317c-38 0 -75 -7 -109 -20c49 -39 82 -84 95 -116h-83c-24 35 -52 61 -80 81c-83 -56 -140 -152 -140 -265c0 -104 55 -199 138 -256c29 20 58 47 85 84h83c-27 -49 -61 -89 -99 -120c34 -13 71 -20 110 -20c171 0 318 139 318 315zM536 74
c-88 70 -145 175 -145 292c0 128 58 232 144 300c-45 16 -86 19 -107 19c-173 0 -311 -152 -311 -317c0 -173 152 -314 312 -314c19 0 59 1 107 20z" />
    <glyph glyph-name="Ccaron_Oacute" unicode="&#xe0b8;" horiz-adv-x="1217" 
d="M579 926l-143 -125h-67l-145 125h92l86 -73l88 73h89zM944 888l-198 -107l-33 58l199 109zM1174 370c0 -218 -185 -383 -392 -383c-63 0 -124 16 -178 43c-57 -29 -118 -43 -174 -43c-207 0 -387 163 -387 382s175 383 386 383c68 0 126 -17 175 -42c55 28 117 43 178 43
c208 0 392 -165 392 -383zM1100 369c0 173 -143 317 -318 317c-38 0 -75 -7 -109 -20c49 -39 82 -84 95 -116h-83c-24 35 -52 61 -80 81c-83 -56 -140 -152 -140 -265c0 -104 55 -199 138 -256c29 20 58 47 85 84h83c-27 -49 -61 -89 -99 -120c34 -13 71 -20 110 -20
c171 0 318 139 318 315zM536 74c-88 70 -145 175 -145 292c0 128 58 232 144 300c-45 16 -86 19 -107 19c-173 0 -311 -152 -311 -317c0 -173 152 -314 312 -314c19 0 59 1 107 20z" />
    <glyph glyph-name="Ccaron_Ocircumflex" unicode="&#xe0b9;" horiz-adv-x="1217" 
d="M572 926l-143 -125h-67l-145 125h92l86 -73l88 73h89zM966 801h-89l-86 73l-88 -73h-91l145 125h66zM1174 370c0 -218 -185 -383 -392 -383c-63 0 -124 16 -178 43c-57 -29 -118 -43 -174 -43c-207 0 -387 163 -387 382s175 383 386 383c68 0 126 -17 175 -42
c55 28 117 43 178 43c208 0 392 -165 392 -383zM1100 369c0 173 -143 317 -318 317c-38 0 -75 -7 -109 -20c49 -39 82 -84 95 -116h-83c-24 35 -52 61 -80 81c-83 -56 -140 -152 -140 -265c0 -104 55 -199 138 -256c29 20 58 47 85 84h83c-27 -49 -61 -89 -99 -120
c34 -13 71 -20 110 -20c171 0 318 139 318 315zM536 74c-88 70 -145 175 -145 292c0 128 58 232 144 300c-45 16 -86 19 -107 19c-173 0 -311 -152 -311 -317c0 -173 152 -314 312 -314c19 0 59 1 107 20z" />
    <glyph glyph-name="D_E" unicode="&#xe0ba;" horiz-adv-x="1153" 
d="M1092 0h-405v264h-2c-21 -68 -64 -147 -152 -203c-60 -39 -150 -61 -241 -61h-216v740h216c91 0 181 -23 241 -61c85 -54 131 -133 152 -206h2v267h405v-67h-331v-266h320v-67h-320v-273h331v-67zM627 371c0 98 -48 191 -126 245c-65 45 -135 57 -244 57h-107v-606h107
h17c66 0 160 2 237 60c47 35 116 115 116 244z" />
    <glyph glyph-name="D_Eacute" unicode="&#xe0bb;" horiz-adv-x="1153" 
d="M1092 0h-405v264h-2c-21 -68 -64 -147 -152 -203c-60 -39 -150 -61 -241 -61h-216v740h216c91 0 181 -23 241 -61c85 -54 131 -133 152 -206h2v267h405v-67h-331v-266h320v-67h-320v-273h331v-67zM627 371c0 98 -48 191 -126 245c-65 45 -135 57 -244 57h-107v-606h107
h17c66 0 160 2 237 60c47 35 116 115 116 244zM1031 888l-198 -107l-33 58l199 109z" />
    <glyph glyph-name="D_Egrave" unicode="&#xe0bc;" horiz-adv-x="1153" 
d="M1092 0h-405v264h-2c-21 -68 -64 -147 -152 -203c-60 -39 -150 -61 -241 -61h-216v740h216c91 0 181 -23 241 -61c85 -54 131 -133 152 -206h2v267h405v-67h-331v-266h320v-67h-320v-273h331v-67zM627 371c0 98 -48 191 -126 245c-65 45 -135 57 -244 57h-107v-606h107
h17c66 0 160 2 237 60c47 35 116 115 116 244zM961 839l-33 -58l-198 107l32 60z" />
    <glyph glyph-name="D_Ecircumflex" unicode="&#xe0bd;" horiz-adv-x="1153" 
d="M1092 0h-405v264h-2c-21 -68 -64 -147 -152 -203c-60 -39 -150 -61 -241 -61h-216v740h216c91 0 181 -23 241 -61c85 -54 131 -133 152 -206h2v267h405v-67h-331v-266h320v-67h-320v-273h331v-67zM627 371c0 98 -48 191 -126 245c-65 45 -135 57 -244 57h-107v-606h107
h17c66 0 160 2 237 60c47 35 116 115 116 244zM1066 801h-89l-86 73l-88 -73h-91l145 125h66z" />
    <glyph glyph-name="D_Edieresis" unicode="&#xe0be;" horiz-adv-x="1153" 
d="M1092 0h-405v264h-2c-21 -68 -64 -147 -152 -203c-60 -39 -150 -61 -241 -61h-216v740h216c91 0 181 -23 241 -61c85 -54 131 -133 152 -206h2v267h405v-67h-331v-266h320v-67h-320v-273h331v-67zM627 371c0 98 -48 191 -126 245c-65 45 -135 57 -244 57h-107v-606h107
h17c66 0 160 2 237 60c47 35 116 115 116 244zM1001 801h-74v126h74v-126zM853 801h-74v126h74v-126z" />
    <glyph glyph-name="D_Emacron" unicode="&#xe0bf;" horiz-adv-x="1153" 
d="M1092 0h-405v264h-2c-21 -68 -64 -147 -152 -203c-60 -39 -150 -61 -241 -61h-216v740h216c91 0 181 -23 241 -61c85 -54 131 -133 152 -206h2v267h405v-67h-331v-266h320v-67h-320v-273h331v-67zM627 371c0 98 -48 191 -126 245c-65 45 -135 57 -244 57h-107v-606h107
h17c66 0 160 2 237 60c47 35 116 115 116 244zM1059 821h-338v67h338v-67z" />
    <glyph glyph-name="D_Ebreve" unicode="&#xe0c0;" horiz-adv-x="1153" 
d="M1092 0h-405v264h-2c-21 -68 -64 -147 -152 -203c-60 -39 -150 -61 -241 -61h-216v740h216c91 0 181 -23 241 -61c85 -54 131 -133 152 -206h2v267h405v-67h-331v-266h320v-67h-320v-273h331v-67zM627 371c0 98 -48 191 -126 245c-65 45 -135 57 -244 57h-107v-606h107
h17c66 0 160 2 237 60c47 35 116 115 116 244zM1063 906c-28 -77 -99 -103 -175 -103s-146 26 -174 103h65c25 -34 69 -46 109 -46s85 12 110 46h65z" />
    <glyph glyph-name="D_Edotaccent" unicode="&#xe0c1;" horiz-adv-x="1153" 
d="M1092 0h-405v264h-2c-21 -68 -64 -147 -152 -203c-60 -39 -150 -61 -241 -61h-216v740h216c91 0 181 -23 241 -61c85 -54 131 -133 152 -206h2v267h405v-67h-331v-266h320v-67h-320v-273h331v-67zM627 371c0 98 -48 191 -126 245c-65 45 -135 57 -244 57h-107v-606h107
h17c66 0 160 2 237 60c47 35 116 115 116 244zM934 801h-74v126h74v-126z" />
    <glyph glyph-name="D_Eogonek" unicode="&#xe0c2;" horiz-adv-x="1153" 
d="M1091 -182c-17 -6 -33 -9 -51 -9c-54 0 -104 31 -104 90c0 49 34 77 72 101h-321v264h-2c-21 -68 -64 -147 -152 -203c-60 -39 -150 -61 -241 -61h-216v740h216c91 0 181 -23 241 -61c85 -54 131 -133 152 -206h2v267h405v-67h-331v-266h320v-67h-320v-273h331v-67h-32
c-30 -23 -75 -56 -75 -98c0 -32 29 -50 58 -50c16 0 33 4 48 10v-44zM627 371c0 98 -48 191 -126 245c-65 45 -135 57 -244 57h-107v-606h124c66 0 160 2 237 60c47 35 116 115 116 244z" />
    <glyph glyph-name="D_Ecaron" unicode="&#xe0c3;" horiz-adv-x="1153" 
d="M1092 0h-405v264h-2c-21 -68 -64 -147 -152 -203c-60 -39 -150 -61 -241 -61h-216v740h216c91 0 181 -23 241 -61c85 -54 131 -133 152 -206h2v267h405v-67h-331v-266h320v-67h-320v-273h331v-67zM627 371c0 98 -48 191 -126 245c-65 45 -135 57 -244 57h-107v-606h107
h17c66 0 160 2 237 60c47 35 116 115 116 244zM1068 926l-143 -125h-67l-145 125h92l86 -73l88 73h89z" />
    <glyph glyph-name="Dcaron_E" unicode="&#xe0c4;" horiz-adv-x="1153" 
d="M1092 0h-405v264h-2c-21 -68 -64 -147 -152 -203c-60 -39 -150 -61 -241 -61h-216v740h216c91 0 181 -23 241 -61c85 -54 131 -133 152 -206h2v267h405v-67h-331v-266h320v-67h-320v-273h331v-67zM627 371c0 98 -48 191 -126 245c-65 45 -135 57 -244 57h-107v-606h107
h17c66 0 160 2 237 60c47 35 116 115 116 244zM496 926l-143 -125h-67l-145 125h92l86 -73l88 73h89z" />
    <glyph glyph-name="Dcaron_Eacute" unicode="&#xe0c5;" horiz-adv-x="1153" 
d="M1092 0h-405v264h-2c-21 -68 -64 -147 -152 -203c-60 -39 -150 -61 -241 -61h-216v740h216c91 0 181 -23 241 -61c85 -54 131 -133 152 -206h2v267h405v-67h-331v-266h320v-67h-320v-273h331v-67zM627 371c0 98 -48 191 -126 245c-65 45 -135 57 -244 57h-107v-606h107
h17c66 0 160 2 237 60c47 35 116 115 116 244zM496 926l-143 -125h-67l-145 125h92l86 -73l88 73h89zM1035 888l-198 -107l-33 58l199 109z" />
    <glyph glyph-name="Dcaron_Ecaron" unicode="&#xe0c6;" horiz-adv-x="1153" 
d="M1092 0h-405v264h-2c-21 -68 -64 -147 -152 -203c-60 -39 -150 -61 -241 -61h-216v740h216c91 0 181 -23 241 -61c85 -54 131 -133 152 -206h2v267h405v-67h-331v-266h320v-67h-320v-273h331v-67zM627 371c0 98 -48 191 -126 245c-65 45 -135 57 -244 57h-107v-606h107
h17c66 0 160 2 237 60c47 35 116 115 116 244zM493 926l-143 -125h-67l-145 125h92l86 -73l88 73h89zM1073 926l-143 -125h-67l-145 125h92l86 -73l88 73h89z" />
    <glyph glyph-name="Dcroat_E" unicode="&#xe0c7;" horiz-adv-x="1211" 
d="M1150 0h-405v264h-2c-21 -68 -64 -147 -152 -203c-60 -39 -150 -61 -241 -61h-216v347h-74v67h74v326h216c91 0 181 -23 241 -61c85 -54 131 -133 152 -206h2v267h405v-67h-331v-266h320v-67h-320v-273h331v-67zM685 371c0 98 -48 191 -126 245c-65 45 -135 57 -244 57
h-107v-259h210v-67h-210v-280h124c66 0 160 2 237 60c47 35 116 115 116 244z" />
    <glyph glyph-name="D_I" unicode="&#xe0c8;" horiz-adv-x="837" 
d="M761 0h-74v264h-2c-21 -68 -64 -147 -152 -203c-60 -39 -150 -61 -241 -61h-216v740h216c91 0 181 -23 241 -61c85 -54 131 -133 152 -206h2v267h74v-740zM627 371c0 98 -48 191 -126 245c-65 45 -135 57 -244 57h-107v-606h107h17c66 0 160 2 237 60
c47 35 116 115 116 244z" />
    <glyph glyph-name="D_Iacute" unicode="&#xe0c9;" horiz-adv-x="837" 
d="M761 0h-74v264h-2c-21 -68 -64 -147 -152 -203c-60 -39 -150 -61 -241 -61h-216v740h216c91 0 181 -23 241 -61c85 -54 131 -133 152 -206h2v267h74v-740zM627 371c0 98 -48 191 -126 245c-65 45 -135 57 -244 57h-107v-606h107h17c66 0 160 2 237 60
c47 35 116 115 116 244zM856 888l-198 -107l-33 58l199 109z" />
    <glyph glyph-name="D_Igrave" unicode="&#xe0ca;" horiz-adv-x="837" 
d="M761 0h-74v264h-2c-21 -68 -64 -147 -152 -203c-60 -39 -150 -61 -241 -61h-216v740h216c91 0 181 -23 241 -61c85 -54 131 -133 152 -206h2v267h74v-740zM627 371c0 98 -48 191 -126 245c-65 45 -135 57 -244 57h-107v-606h107h17c66 0 160 2 237 60
c47 35 116 115 116 244zM804 839l-33 -58l-198 107l32 60z" />
    <glyph glyph-name="D_Icircumflex" unicode="&#xe0cb;" horiz-adv-x="837" 
d="M761 0h-74v264h-2c-21 -68 -64 -147 -152 -203c-60 -39 -150 -61 -241 -61h-216v740h216c91 0 181 -23 241 -61c85 -54 131 -133 152 -206h2v267h74v-740zM627 371c0 98 -48 191 -126 245c-65 45 -135 57 -244 57h-107v-606h107h17c66 0 160 2 237 60
c47 35 116 115 116 244zM891 791h-89l-86 73l-88 -73h-91l145 125h66z" />
    <glyph glyph-name="D_Idieresis" unicode="&#xe0cc;" horiz-adv-x="837" 
d="M761 0h-74v264h-2c-21 -68 -64 -147 -152 -203c-60 -39 -150 -61 -241 -61h-216v740h216c91 0 181 -23 241 -61c85 -54 131 -133 152 -206h2v267h74v-740zM627 371c0 98 -48 191 -126 245c-65 45 -135 57 -244 57h-107v-606h107h17c66 0 160 2 237 60
c47 35 116 115 116 244zM832 801h-74v126h74v-126zM684 801h-74v126h74v-126z" />
    <glyph glyph-name="D_Itilde" unicode="&#xe0cd;" horiz-adv-x="837" 
d="M761 0h-74v264h-2c-21 -68 -64 -147 -152 -203c-60 -39 -150 -61 -241 -61h-216v740h216c91 0 181 -23 241 -61c85 -54 131 -133 152 -206h2v267h74v-740zM627 371c0 98 -48 191 -126 245c-65 45 -135 57 -244 57h-107v-606h107h17c66 0 160 2 237 60
c47 35 116 115 116 244zM883 842c-27 -20 -64 -39 -98 -39c-60 0 -99 41 -145 41c-25 0 -49 -13 -67 -30l-35 50c29 27 64 42 104 42c58 0 96 -41 142 -41c24 0 43 14 63 26z" />
    <glyph glyph-name="D_Imacron" unicode="&#xe0ce;" horiz-adv-x="837" 
d="M761 0h-74v264h-2c-21 -68 -64 -147 -152 -203c-60 -39 -150 -61 -241 -61h-216v740h216c91 0 181 -23 241 -61c85 -54 131 -133 152 -206h2v267h74v-740zM627 371c0 98 -48 191 -126 245c-65 45 -135 57 -244 57h-107v-606h107h17c66 0 160 2 237 60
c47 35 116 115 116 244zM882 821h-338v67h338v-67z" />
    <glyph glyph-name="D_Ibreve" unicode="&#xe0cf;" horiz-adv-x="837" 
d="M761 0h-74v264h-2c-21 -68 -64 -147 -152 -203c-60 -39 -150 -61 -241 -61h-216v740h216c91 0 181 -23 241 -61c85 -54 131 -133 152 -206h2v267h74v-740zM627 371c0 98 -48 191 -126 245c-65 45 -135 57 -244 57h-107v-606h107h17c66 0 160 2 237 60
c47 35 116 115 116 244zM880 906c-28 -77 -99 -103 -175 -103s-146 26 -174 103h65c25 -34 69 -46 109 -46s85 12 110 46h65z" />
    <glyph glyph-name="D_Idotaccent" unicode="&#xe0d0;" horiz-adv-x="837" 
d="M761 0h-74v264h-2c-21 -68 -64 -147 -152 -203c-60 -39 -150 -61 -241 -61h-216v740h216c91 0 181 -23 241 -61c85 -54 131 -133 152 -206h2v267h74v-740zM627 371c0 98 -48 191 -126 245c-65 45 -135 57 -244 57h-107v-606h107h17c66 0 160 2 237 60
c47 35 116 115 116 244zM759 801h-74v126h74v-126z" />
    <glyph glyph-name="D_Iogonek" unicode="&#xe0d1;" horiz-adv-x="837" 
d="M791 -182c-17 -6 -33 -9 -51 -9c-54 0 -104 31 -104 90c0 49 34 77 72 101h-21v264h-2c-21 -68 -64 -147 -152 -203c-60 -39 -150 -61 -241 -61h-216v740h216c91 0 181 -23 241 -61c85 -54 131 -133 152 -206h2v267h74v-740h-1c-30 -23 -75 -56 -75 -98
c0 -32 29 -50 58 -50c16 0 33 4 48 10v-44zM627 371c0 98 -48 191 -126 245c-65 45 -135 57 -244 57h-107v-606h124c66 0 160 2 237 60c47 35 116 115 116 244z" />
    <glyph glyph-name="Dcaron_I" unicode="&#xe0d2;" horiz-adv-x="837" 
d="M761 0h-74v264h-2c-21 -68 -64 -147 -152 -203c-60 -39 -150 -61 -241 -61h-216v740h216c91 0 181 -23 241 -61c85 -54 131 -133 152 -206h2v267h74v-740zM627 371c0 98 -48 191 -126 245c-65 45 -135 57 -244 57h-107v-606h107h17c66 0 160 2 237 60
c47 35 116 115 116 244zM499 926l-143 -125h-67l-145 125h92l86 -73l88 73h89z" />
    <glyph glyph-name="Dcaron_Iacute" unicode="&#xe0d3;" horiz-adv-x="837" 
d="M761 0h-74v264h-2c-21 -68 -64 -147 -152 -203c-60 -39 -150 -61 -241 -61h-216v740h216c91 0 181 -23 241 -61c85 -54 131 -133 152 -206h2v267h74v-740zM627 371c0 98 -48 191 -126 245c-65 45 -135 57 -244 57h-107v-606h107h17c66 0 160 2 237 60
c47 35 116 115 116 244zM475 926l-143 -125h-67l-145 125h92l86 -73l88 73h89zM834 888l-198 -107l-33 58l199 109z" />
    <glyph glyph-name="Dcroat_I" unicode="&#xe0d4;" horiz-adv-x="895" 
d="M819 0h-74v264h-2c-21 -68 -64 -147 -152 -203c-60 -39 -150 -61 -241 -61h-216v347h-74v67h74v326h216c91 0 181 -23 241 -61c85 -54 131 -133 152 -206h2v267h74v-740zM685 371c0 98 -48 191 -126 245c-65 45 -135 57 -244 57h-107v-259h210v-67h-210v-280h124
c66 0 160 2 237 60c47 35 116 115 116 244z" />
    <glyph glyph-name="E_A" unicode="&#xe0d5;" horiz-adv-x="943" 
d="M867 0h-74v249h-280l-126 -182h193v-67h-504v740h384v-67h-310v-266h310v-67h-310v-273h147l468 673h102v-740zM793 316v340h-2l-231 -340h233z" />
    <glyph glyph-name="Eacute_A" unicode="&#xe0d6;" horiz-adv-x="943" 
d="M867 0h-74v249h-280l-126 -182h193v-67h-504v740h384v-67h-310v-266h310v-67h-310v-273h147l468 673h102v-740zM793 316v340h-2l-231 -340h233zM427 888l-198 -107l-33 58l199 109z" />
    <glyph glyph-name="Egrave_A" unicode="&#xe0d7;" horiz-adv-x="943" 
d="M867 0h-74v249h-280l-126 -182h193v-67h-504v740h384v-67h-310v-266h310v-67h-310v-273h147l468 673h102v-740zM793 316v340h-2l-231 -340h233zM367 839l-33 -58l-198 107l32 60z" />
    <glyph glyph-name="Ecircumflex_A" unicode="&#xe0d8;" horiz-adv-x="943" 
d="M867 0h-74v249h-280l-126 -182h193v-67h-504v740h384v-67h-310v-266h310v-67h-310v-273h147l468 673h102v-740zM793 316v340h-2l-231 -340h233zM451 801h-89l-86 73l-88 -73h-91l145 125h66z" />
    <glyph glyph-name="Edieresis_A" unicode="&#xe0d9;" horiz-adv-x="943" 
d="M867 0h-74v249h-280l-126 -182h193v-67h-504v740h384v-67h-310v-266h310v-67h-310v-273h147l468 673h102v-740zM793 316v340h-2l-231 -340h233zM385 801h-74v126h74v-126zM237 801h-74v126h74v-126z" />
    <glyph glyph-name="Emacron_A" unicode="&#xe0da;" horiz-adv-x="943" 
d="M867 0h-74v249h-280l-126 -182h193v-67h-504v740h384v-67h-310v-266h310v-67h-310v-273h147l468 673h102v-740zM793 316v340h-2l-231 -340h233zM444 821h-338v67h338v-67z" />
    <glyph glyph-name="Ebreve_A" unicode="&#xe0db;" horiz-adv-x="943" 
d="M867 0h-74v249h-280l-126 -182h193v-67h-504v740h384v-67h-310v-266h310v-67h-310v-273h147l468 673h102v-740zM793 316v340h-2l-231 -340h233zM446 906c-28 -77 -99 -103 -175 -103s-146 26 -174 103h65c25 -34 69 -46 109 -46s85 12 110 46h65z" />
    <glyph glyph-name="Edotaccent_A" unicode="&#xe0dc;" horiz-adv-x="943" 
d="M867 0h-74v249h-280l-126 -182h193v-67h-504v740h384v-67h-310v-266h310v-67h-310v-273h147l468 673h102v-740zM793 316v340h-2l-231 -340h233zM310 801h-74v126h74v-126z" />
    <glyph glyph-name="Ecaron_A" unicode="&#xe0dd;" horiz-adv-x="943" 
d="M867 0h-74v249h-280l-126 -182h193v-67h-504v740h384v-67h-310v-266h310v-67h-310v-273h147l468 673h102v-740zM793 316v340h-2l-231 -340h233zM455 926l-143 -125h-67l-145 125h92l86 -73l88 73h89z" />
    <glyph glyph-name="F_A" unicode="&#xe0de;" horiz-adv-x="908" 
d="M832 0h-74v285h-255l-198 -285h-90l199 285h-264v-285h-74v740h369v-67h-295v-321h311l270 388h101v-740zM758 352v304h-2l-206 -304h208z" />
    <glyph glyph-name="F_Aacute" unicode="&#xe0df;" horiz-adv-x="908" 
d="M832 0h-74v285h-255l-198 -285h-90l199 285h-264v-285h-74v740h369v-67h-295v-321h311l270 388h101v-740zM758 352v304h-2l-206 -304h208zM891 888l-198 -107l-33 58l199 109z" />
    <glyph glyph-name="F_Agrave" unicode="&#xe0e0;" horiz-adv-x="908" 
d="M832 0h-74v285h-255l-198 -285h-90l199 285h-264v-285h-74v740h369v-67h-295v-321h311l270 388h101v-740zM758 352v304h-2l-206 -304h208zM858 839l-33 -58l-198 107l32 60z" />
    <glyph glyph-name="F_Acircumflex" unicode="&#xe0e1;" horiz-adv-x="908" 
d="M832 0h-74v285h-255l-198 -285h-90l199 285h-264v-285h-74v740h369v-67h-295v-321h311l270 388h101v-740zM758 352v304h-2l-206 -304h208zM929 801h-89l-86 73l-88 -73h-91l145 125h66z" />
    <glyph glyph-name="F_Adieresis" unicode="&#xe0e2;" horiz-adv-x="908" 
d="M832 0h-74v285h-255l-198 -285h-90l199 285h-264v-285h-74v740h369v-67h-295v-321h311l270 388h101v-740zM758 352v304h-2l-206 -304h208zM876 801h-74v126h74v-126zM728 801h-74v126h74v-126z" />
    <glyph glyph-name="F_Aring" unicode="&#xe0e3;" horiz-adv-x="908" 
d="M832 0h-74v285h-255l-198 -285h-90l199 285h-264v-285h-74v740h369v-67h-295v-321h311l270 388h101v-740zM758 352v304h-2l-206 -304h208zM877 863c0 -57 -47 -103 -104 -103c-56 0 -103 47 -103 103s46 104 103 104c58 0 104 -46 104 -104zM825 863c0 29 -23 52 -52 52
c-28 0 -51 -24 -51 -52s23 -51 51 -51s52 22 52 51z" />
    <glyph glyph-name="F_Amacron" unicode="&#xe0e4;" horiz-adv-x="908" 
d="M832 0h-74v285h-255l-198 -285h-90l199 285h-264v-285h-74v740h369v-67h-295v-321h311l270 388h101v-740zM758 352v304h-2l-206 -304h208zM933 821h-338v67h338v-67z" />
    <glyph glyph-name="F_Abreve" unicode="&#xe0e5;" horiz-adv-x="908" 
d="M832 0h-74v285h-255l-198 -285h-90l199 285h-264v-285h-74v740h369v-67h-295v-321h311l270 388h101v-740zM758 352v304h-2l-206 -304h208zM926 906c-28 -77 -99 -103 -175 -103s-146 26 -174 103h65c25 -34 69 -46 109 -46s85 12 110 46h65z" />
    <glyph glyph-name="F_Aogonek" unicode="&#xe0e6;" horiz-adv-x="908" 
d="M852 -182c-17 -6 -33 -9 -51 -9c-54 0 -104 31 -104 90c0 49 34 77 72 101h-11v285h-255l-198 -285h-90l199 285h-264v-285h-74v740h369v-67h-295v-321h311l270 388h101v-740h-11c-30 -23 -75 -56 -75 -98c0 -32 29 -50 58 -50c16 0 33 4 48 10v-44zM758 352v304h-2
l-206 -304h208z" />
    <glyph glyph-name="F_R" unicode="&#xe0e7;" horiz-adv-x="673" 
d="M648 387c0 -124 -81 -179 -180 -194l-7 -1l145 -192h-89l-177 245h71c39 0 85 6 121 40c29 27 44 54 44 100c0 31 -13 77 -44 105s-66 43 -142 43h-85v-122h148v-61h-148v-350h-74v350h-81v-350h-74v740h379v-67h-305v-262h81v190h156c87 0 152 -17 198 -61
c42 -40 63 -99 63 -153z" />
    <glyph glyph-name="F_Rcommaaccent" unicode="&#xe0e8;" horiz-adv-x="673" 
d="M648 387c0 -124 -81 -179 -180 -194l-7 -1l145 -192h-89l-177 245h71c39 0 85 6 121 40c29 27 44 54 44 100c0 31 -13 77 -44 105s-66 43 -142 43h-85v-122h148v-61h-148v-350h-74v350h-81v-350h-74v740h379v-67h-305v-262h81v190h156c87 0 152 -17 198 -61
c42 -40 63 -99 63 -153zM441 -53l-77 -169h-74l77 169h74z" />
    <glyph glyph-name="G_A" unicode="&#xe0e9;" horiz-adv-x="1025" 
d="M949 0h-74v656h-2l-210 -309h151c-17 -231 -206 -361 -384 -361c-205 0 -387 154 -387 383c0 217 168 385 381 385c116 0 219 -56 280 -117l-43 -59c-45 47 -120 108 -235 108c-172 0 -309 -140 -309 -317c0 -164 110 -285 256 -311l154 221h-223v68h270l274 393h101
v-740zM726 279h-110l-156 -224c112 6 237 107 266 224z" />
    <glyph glyph-name="G_Aacute" unicode="&#xe0ea;" horiz-adv-x="1025" 
d="M949 0h-74v656h-2l-210 -309h151c-17 -231 -206 -361 -384 -361c-205 0 -387 154 -387 383c0 217 168 385 381 385c116 0 219 -56 280 -117l-43 -59c-45 47 -120 108 -235 108c-172 0 -309 -140 -309 -317c0 -164 110 -285 256 -311l154 221h-223v68h270l274 393h101
v-740zM726 279h-110l-156 -224c112 6 237 107 266 224zM1028 888l-198 -107l-33 58l199 109z" />
    <glyph glyph-name="G_Agrave" unicode="&#xe0eb;" horiz-adv-x="1025" 
d="M949 0h-74v656h-2l-210 -309h151c-17 -231 -206 -361 -384 -361c-205 0 -387 154 -387 383c0 217 168 385 381 385c116 0 219 -56 280 -117l-43 -59c-45 47 -120 108 -235 108c-172 0 -309 -140 -309 -317c0 -164 110 -285 256 -311l154 221h-223v68h270l274 393h101
v-740zM726 279h-110l-156 -224c112 6 237 107 266 224zM971 839l-33 -58l-198 107l32 60z" />
    <glyph glyph-name="G_Acircumflex" unicode="&#xe0ec;" horiz-adv-x="1025" 
d="M949 0h-74v656h-2l-210 -309h151c-17 -231 -206 -361 -384 -361c-205 0 -387 154 -387 383c0 217 168 385 381 385c116 0 219 -56 280 -117l-43 -59c-45 47 -120 108 -235 108c-172 0 -309 -140 -309 -317c0 -164 110 -285 256 -311l154 221h-223v68h270l274 393h101
v-740zM726 279h-110l-156 -224c112 6 237 107 266 224zM1057 801h-89l-86 73l-88 -73h-91l145 125h66z" />
    <glyph glyph-name="G_Adieresis" unicode="&#xe0ed;" horiz-adv-x="1025" 
d="M949 0h-74v656h-2l-210 -309h151c-17 -231 -206 -361 -384 -361c-205 0 -387 154 -387 383c0 217 168 385 381 385c116 0 219 -56 280 -117l-43 -59c-45 47 -120 108 -235 108c-172 0 -309 -140 -309 -317c0 -164 110 -285 256 -311l154 221h-223v68h270l274 393h101
v-740zM726 279h-110l-156 -224c112 6 237 107 266 224zM996 801h-74v126h74v-126zM848 801h-74v126h74v-126z" />
    <glyph glyph-name="G_Atilde" unicode="&#xe0ee;" horiz-adv-x="1025" 
d="M949 0h-74v656h-2l-210 -309h151c-17 -231 -206 -361 -384 -361c-205 0 -387 154 -387 383c0 217 168 385 381 385c116 0 219 -56 280 -117l-43 -59c-45 47 -120 108 -235 108c-172 0 -309 -140 -309 -317c0 -164 110 -285 256 -311l154 221h-223v68h270l274 393h101
v-740zM726 279h-110l-156 -224c112 6 237 107 266 224zM1047 842c-27 -20 -64 -39 -98 -39c-60 0 -99 41 -145 41c-25 0 -49 -13 -67 -30l-35 50c29 27 64 42 104 42c58 0 96 -41 142 -41c24 0 43 14 63 26z" />
    <glyph glyph-name="G_Aring" unicode="&#xe0ef;" horiz-adv-x="1025" 
d="M949 0h-74v656h-2l-210 -309h151c-17 -231 -206 -361 -384 -361c-205 0 -387 154 -387 383c0 217 168 385 381 385c116 0 219 -56 280 -117l-43 -59c-45 47 -120 108 -235 108c-172 0 -309 -140 -309 -317c0 -164 110 -285 256 -311l154 221h-223v68h270l274 393h101
v-740zM726 279h-110l-156 -224c112 6 237 107 266 224zM996 863c0 -57 -47 -103 -104 -103c-56 0 -103 47 -103 103s46 104 103 104c58 0 104 -46 104 -104zM944 863c0 29 -23 52 -52 52c-28 0 -51 -24 -51 -52s23 -51 51 -51s52 22 52 51z" />
    <glyph glyph-name="G_Amacron" unicode="&#xe0f0;" horiz-adv-x="1025" 
d="M949 0h-74v656h-2l-210 -309h151c-17 -231 -206 -361 -384 -361c-205 0 -387 154 -387 383c0 217 168 385 381 385c116 0 219 -56 280 -117l-43 -59c-45 47 -120 108 -235 108c-172 0 -309 -140 -309 -317c0 -164 110 -285 256 -311l154 221h-223v68h270l274 393h101
v-740zM726 279h-110l-156 -224c112 6 237 107 266 224zM1036 821h-338v67h338v-67z" />
    <glyph glyph-name="G_Abreve" unicode="&#xe0f1;" horiz-adv-x="1025" 
d="M949 0h-74v656h-2l-210 -309h151c-17 -231 -206 -361 -384 -361c-205 0 -387 154 -387 383c0 217 168 385 381 385c116 0 219 -56 280 -117l-43 -59c-45 47 -120 108 -235 108c-172 0 -309 -140 -309 -317c0 -164 110 -285 256 -311l154 221h-223v68h270l274 393h101
v-740zM726 279h-110l-156 -224c112 6 237 107 266 224zM1041 906c-28 -77 -99 -103 -175 -103s-146 26 -174 103h65c25 -34 69 -46 109 -46s85 12 110 46h65z" />
    <glyph glyph-name="G_Aogonek" unicode="&#xe0f2;" horiz-adv-x="1025" 
d="M975 -182c-17 -6 -33 -9 -51 -9c-54 0 -104 31 -104 90c0 49 34 77 72 101h-17v656h-2l-210 -309h151c-17 -231 -206 -361 -384 -361c-205 0 -387 154 -387 383c0 217 168 385 381 385c116 0 219 -56 280 -117l-43 -59c-45 47 -120 108 -235 108
c-172 0 -309 -140 -309 -317c0 -164 110 -285 256 -311l154 221h-223v68h270l274 393h101v-740h-5c-30 -23 -75 -56 -75 -98c0 -32 29 -50 58 -50c16 0 33 4 48 10v-44zM726 279h-110l-156 -224c112 6 237 107 266 224z" />
    <glyph glyph-name="Gcircumflex_A" unicode="&#xe0f3;" horiz-adv-x="1025" 
d="M949 0h-74v656h-2l-210 -309h151c-17 -231 -206 -361 -384 -361c-205 0 -387 154 -387 383c0 217 168 385 381 385c116 0 219 -56 280 -117l-43 -59c-45 47 -120 108 -235 108c-172 0 -309 -140 -309 -317c0 -164 110 -285 256 -311l154 221h-223v68h270l274 393h101
v-740zM726 279h-110l-156 -224c112 6 237 107 266 224zM588 801h-89l-86 73l-88 -73h-91l145 125h66z" />
    <glyph glyph-name="Gcircumflex_Amacron" unicode="&#xe0f4;" horiz-adv-x="1025" 
d="M949 0h-74v656h-2l-210 -309h151c-17 -231 -206 -361 -384 -361c-205 0 -387 154 -387 383c0 217 168 385 381 385c116 0 219 -56 280 -117l-43 -59c-45 47 -120 108 -235 108c-172 0 -309 -140 -309 -317c0 -164 110 -285 256 -311l154 221h-223v68h270l274 393h101
v-740zM726 279h-110l-156 -224c112 6 237 107 266 224zM591 801h-89l-86 73l-88 -73h-91l145 125h66zM1042 821h-338v67h338v-67z" />
    <glyph glyph-name="Gcircumflex_Abreve" unicode="&#xe0f5;" horiz-adv-x="1025" 
d="M949 0h-74v656h-2l-210 -309h151c-17 -231 -206 -361 -384 -361c-205 0 -387 154 -387 383c0 217 168 385 381 385c116 0 219 -56 280 -117l-43 -59c-45 47 -120 108 -235 108c-172 0 -309 -140 -309 -317c0 -164 110 -285 256 -311l154 221h-223v68h270l274 393h101
v-740zM726 279h-110l-156 -224c112 6 237 107 266 224zM595 801h-89l-86 73l-88 -73h-91l145 125h66zM1041 906c-28 -77 -99 -103 -175 -103s-146 26 -174 103h65c25 -34 69 -46 109 -46s85 12 110 46h65z" />
    <glyph glyph-name="Gbreve_A" unicode="&#xe0f6;" horiz-adv-x="1025" 
d="M949 0h-74v656h-2l-210 -309h151c-17 -231 -206 -361 -384 -361c-205 0 -387 154 -387 383c0 217 168 385 381 385c116 0 219 -56 280 -117l-43 -59c-45 47 -120 108 -235 108c-172 0 -309 -140 -309 -317c0 -164 110 -285 256 -311l154 221h-223v68h270l274 393h101
v-740zM726 279h-110l-156 -224c112 6 237 107 266 224zM587 906c-28 -77 -99 -103 -175 -103s-146 26 -174 103h65c25 -34 69 -46 109 -46s85 12 110 46h65z" />
    <glyph glyph-name="Gbreve_Acircumflex" unicode="&#xe0f7;" horiz-adv-x="1025" 
d="M949 0h-74v656h-2l-210 -309h151c-17 -231 -206 -361 -384 -361c-205 0 -387 154 -387 383c0 217 168 385 381 385c116 0 219 -56 280 -117l-43 -59c-45 47 -120 108 -235 108c-172 0 -309 -140 -309 -317c0 -164 110 -285 256 -311l154 221h-223v68h270l274 393h101
v-740zM726 279h-110l-156 -224c112 6 237 107 266 224zM579 906c-28 -77 -99 -103 -175 -103s-146 26 -174 103h65c25 -34 69 -46 109 -46s85 12 110 46h65zM1052 801h-89l-86 73l-88 -73h-91l145 125h66z" />
    <glyph glyph-name="Gdotaccent_A" unicode="&#xe0f8;" horiz-adv-x="1025" 
d="M949 0h-74v656h-2l-210 -309h151c-17 -231 -206 -361 -384 -361c-205 0 -387 154 -387 383c0 217 168 385 381 385c116 0 219 -56 280 -117l-43 -59c-45 47 -120 108 -235 108c-172 0 -309 -140 -309 -317c0 -164 110 -285 256 -311l154 221h-223v68h270l274 393h101
v-740zM726 279h-110l-156 -224c112 6 237 107 266 224zM465 801h-74v126h74v-126z" />
    <glyph glyph-name="Gdotaccent_Agrave" unicode="&#xe0f9;" horiz-adv-x="1025" 
d="M949 0h-74v656h-2l-210 -309h151c-17 -231 -206 -361 -384 -361c-205 0 -387 154 -387 383c0 217 168 385 381 385c116 0 219 -56 280 -117l-43 -59c-45 47 -120 108 -235 108c-172 0 -309 -140 -309 -317c0 -164 110 -285 256 -311l154 221h-223v68h270l274 393h101
v-740zM726 279h-110l-156 -224c112 6 237 107 266 224zM462 801h-74v126h74v-126zM983 839l-33 -58l-198 107l32 60z" />
    <glyph glyph-name="Gcommaaccent_A" unicode="&#xe0fa;" horiz-adv-x="1025" 
d="M949 0h-74v656h-2l-210 -309h151c-17 -231 -206 -361 -384 -361c-205 0 -387 154 -387 383c0 217 168 385 381 385c116 0 219 -56 280 -117l-43 -59c-45 47 -120 108 -235 108c-172 0 -309 -140 -309 -317c0 -164 110 -285 256 -311l154 221h-223v68h270l274 393h101
v-740zM726 279h-110l-156 -224c112 6 237 107 266 224zM483 -53l-77 -169h-74l77 169h74z" />
    <glyph glyph-name="Gcommaaccent_Amacron" unicode="&#xe0fb;" horiz-adv-x="1025" 
d="M949 0h-74v656h-2l-210 -309h151c-17 -231 -206 -361 -384 -361c-205 0 -387 154 -387 383c0 217 168 385 381 385c116 0 219 -56 280 -117l-43 -59c-45 47 -120 108 -235 108c-172 0 -309 -140 -309 -317c0 -164 110 -285 256 -311l154 221h-223v68h270l274 393h101
v-740zM726 279h-110l-156 -224c112 6 237 107 266 224zM478 -53l-77 -169h-74l77 169h74zM1045 821h-338v67h338v-67z" />
    <glyph glyph-name="G_O" unicode="&#xe0fc;" horiz-adv-x="1235" 
d="M1192 370c0 -218 -185 -383 -392 -383c-64 0 -126 16 -181 44c-57 -29 -120 -44 -182 -44c-221 0 -397 179 -397 383c0 192 159 383 396 383c71 0 133 -18 184 -44c56 29 118 44 180 44c208 0 392 -165 392 -383zM1118 369c0 173 -143 317 -318 317
c-39 0 -77 -7 -112 -21c51 -41 85 -88 98 -122h-86c-18 31 -45 61 -81 86c-81 -57 -136 -151 -136 -263c0 -9 0 -17 1 -26h344c-9 -114 -64 -204 -141 -265c35 -13 74 -21 113 -21c171 0 318 139 318 315zM739 273h-241c22 -66 65 -123 122 -162c62 43 105 105 119 162z
M553 75c-63 51 -111 120 -132 198h-95v67h84c-1 9 -1 17 -1 26c0 127 58 231 142 299c-34 13 -73 21 -114 21c-187 0 -323 -152 -323 -317s136 -315 326 -315c41 0 78 8 113 21z" />
    <glyph glyph-name="G_Oacute" unicode="&#xe0fd;" horiz-adv-x="1235" 
d="M1192 370c0 -218 -185 -383 -392 -383c-64 0 -126 16 -181 44c-57 -29 -120 -44 -182 -44c-221 0 -397 179 -397 383c0 192 159 383 396 383c71 0 133 -18 184 -44c56 29 118 44 180 44c208 0 392 -165 392 -383zM1118 369c0 173 -143 317 -318 317
c-39 0 -77 -7 -112 -21c51 -41 85 -88 98 -122h-86c-18 31 -45 61 -81 86c-81 -57 -136 -151 -136 -263c0 -9 0 -17 1 -26h344c-9 -114 -64 -204 -141 -265c35 -13 74 -21 113 -21c171 0 318 139 318 315zM739 273h-241c22 -66 65 -123 122 -162c62 43 105 105 119 162z
M553 75c-63 51 -111 120 -132 198h-95v67h84c-1 9 -1 17 -1 26c0 127 58 231 142 299c-34 13 -73 21 -114 21c-187 0 -323 -152 -323 -317s136 -315 326 -315c41 0 78 8 113 21zM943 888l-198 -107l-33 58l199 109z" />
    <glyph glyph-name="G_Ograve" unicode="&#xe0fe;" horiz-adv-x="1235" 
d="M1192 370c0 -218 -185 -383 -392 -383c-64 0 -126 16 -181 44c-57 -29 -120 -44 -182 -44c-221 0 -397 179 -397 383c0 192 159 383 396 383c71 0 133 -18 184 -44c56 29 118 44 180 44c208 0 392 -165 392 -383zM1118 369c0 173 -143 317 -318 317
c-39 0 -77 -7 -112 -21c51 -41 85 -88 98 -122h-86c-18 31 -45 61 -81 86c-81 -57 -136 -151 -136 -263c0 -9 0 -17 1 -26h344c-9 -114 -64 -204 -141 -265c35 -13 74 -21 113 -21c171 0 318 139 318 315zM739 273h-241c22 -66 65 -123 122 -162c62 43 105 105 119 162z
M553 75c-63 51 -111 120 -132 198h-95v67h84c-1 9 -1 17 -1 26c0 127 58 231 142 299c-34 13 -73 21 -114 21c-187 0 -323 -152 -323 -317s136 -315 326 -315c41 0 78 8 113 21zM896 839l-33 -58l-198 107l32 60z" />
    <glyph glyph-name="G_Ocircumflex" unicode="&#xe0ff;" horiz-adv-x="1235" 
d="M1192 370c0 -218 -185 -383 -392 -383c-64 0 -126 16 -181 44c-57 -29 -120 -44 -182 -44c-221 0 -397 179 -397 383c0 192 159 383 396 383c71 0 133 -18 184 -44c56 29 118 44 180 44c208 0 392 -165 392 -383zM1118 369c0 173 -143 317 -318 317
c-39 0 -77 -7 -112 -21c51 -41 85 -88 98 -122h-86c-18 31 -45 61 -81 86c-81 -57 -136 -151 -136 -263c0 -9 0 -17 1 -26h344c-9 -114 -64 -204 -141 -265c35 -13 74 -21 113 -21c171 0 318 139 318 315zM739 273h-241c22 -66 65 -123 122 -162c62 43 105 105 119 162z
M553 75c-63 51 -111 120 -132 198h-95v67h84c-1 9 -1 17 -1 26c0 127 58 231 142 299c-34 13 -73 21 -114 21c-187 0 -323 -152 -323 -317s136 -315 326 -315c41 0 78 8 113 21zM994 801h-89l-86 73l-88 -73h-91l145 125h66z" />
    </font>
</defs>
</svg>
