<?xml version="1.0" standalone="no"?>
<!DOCTYPE svg PUBLIC "-//W3C//DTD SVG 1.1//EN" "http://www.w3.org/Graphics/SVG/1.1/DTD/svg11.dtd" >
<svg xmlns="http://www.w3.org/2000/svg" xmlns:xlink="http://www.w3.org/1999/xlink" version="1.1">
<metadata>
Created by FontForge 20150102 at Wed Feb 25 03:20:17 2015
 By uniteet7
Please review the description of this font at http://www.itcfonts.com.
</metadata>
<defs>
<font id="ITCAvantGardePro-Demi" horiz-adv-x="600" >
  <font-face 
    font-family="ITC Avant Garde Pro Bk"
    font-weight="600"
    font-stretch="normal"
    units-per-em="1000"
    panose-1="2 0 5 3 3 0 0 2 0 4"
    ascent="740"
    descent="-260"
    x-height="555"
    cap-height="740"
    bbox="-123 -259 1222 1021"
    underline-thickness="50"
    underline-position="-50"
    stemh="123"
    stemv="131"
    unicode-range="U+0020-FB04"
  />
<missing-glyph horiz-adv-x="-3071" 
d="M12 0v665h475v-665h-475zM88 618l162 -243l161 243h-323zM60 575v-484c0 -1 161 242 161 242zM440 575l-162 -242l162 -243v485zM411 48l-161 242l-162 -242h323z" />
    <glyph glyph-name="f_t" unicode="ft" horiz-adv-x="532" 
d="M531 437h-80v-437h-133v437h-123v-437h-133v437h-47v118h47c8 104 82 185 181 185h37v-131c-43 0 -59 -5 -71 -20c-7 -9 -11 -24 -13 -34h122v185h133v-185h80v-118z" />
    <glyph glyph-name="f_f_t" unicode="fft" horiz-adv-x="788" 
d="M787 437h-80v-437h-133v437h-123v-437h-133v437h-123v-437h-133v437h-47v118h47c8 104 82 185 181 185h37v-131c-43 0 -59 -5 -71 -20c-7 -9 -11 -24 -13 -34h122c8 104 82 185 181 185h37v-131c-43 0 -59 -5 -71 -20c-7 -9 -11 -24 -13 -34h122v185h133v-185h80v-118z
" />
    <glyph glyph-name="f_f" unicode="ff" horiz-adv-x="536" 
d="M529 437h-78v-437h-133v437h-123v-437h-133v437h-47v118h47c8 104 82 185 181 185h37v-131c-43 0 -59 -5 -71 -20c-7 -9 -11 -24 -13 -34h121c9 106 88 185 175 185h37v-131c-43 0 -53 -5 -65 -20c-7 -9 -12 -24 -13 -34h78v-118z" />
    <glyph glyph-name="f_i" unicode="fi" horiz-adv-x="520" 
d="M461 618h-133v122h133v-122zM461 0h-133v437h-123v-437h-133v437h-47v118h47c5 60 19 112 65 155c31 28 74 45 116 45h37v-131c-56 -1 -81 -6 -85 -69h256v-555z" />
    <glyph glyph-name="f_l" unicode="fl" horiz-adv-x="520" 
d="M461 0h-133v437h-123v-437h-133v437h-47v118h47c5 60 19 112 65 155c31 28 74 45 116 45h37v-131c-56 -1 -81 -6 -85 -69h123v185h133v-740z" />
    <glyph glyph-name="f_f_i" unicode="ffi" horiz-adv-x="761" 
d="M707 609h-133v131h133v-131zM707 0h-133v437h-123v-437h-133v437h-123v-437h-133v437h-47v118h47c8 104 82 185 181 185h37v-131c-43 0 -59 -5 -71 -20c-7 -9 -11 -24 -13 -34h122c8 104 82 185 181 185h37v-131c-43 0 -59 -5 -71 -20c-7 -9 -12 -24 -14 -34h256v-555z
" />
    <glyph glyph-name="f_f_l" unicode="ffl" horiz-adv-x="761" 
d="M707 0h-133v437h-123v-437h-133v437h-123v-437h-133v437h-47v118h47c8 104 82 185 181 185h37v-131c-43 0 -59 -5 -71 -20c-7 -9 -11 -24 -13 -34h122c8 104 82 185 181 185h37v-131c-43 0 -59 -5 -71 -20c-7 -9 -12 -24 -14 -34h123v185h133v-740z" />
    <glyph glyph-name=".notdef" horiz-adv-x="-3071" 
d="M12 0v665h475v-665h-475zM88 618l162 -243l161 243h-323zM60 575v-484c0 -1 161 242 161 242zM440 575l-162 -242l162 -243v485zM411 48l-161 242l-162 -242h323z" />
    <glyph glyph-name="space" unicode=" " horiz-adv-x="280" 
 />
    <glyph glyph-name="exclam" unicode="!" horiz-adv-x="280" 
d="M206 188h-133v552h133v-552zM206 0h-133v127h133v-127z" />
    <glyph glyph-name="quotedbl" unicode="&#x22;" horiz-adv-x="360" 
d="M341 740l-26 -296h-82l-25 296h133zM152 740l-27 -296h-80l-26 296h133z" />
    <glyph glyph-name="numbersign" unicode="#" horiz-adv-x="560" 
d="M525 503l-4 -95h-86l-16 -116h76l-4 -95h-86l-27 -197h-100l27 197h-91l-27 -197h-100l27 197h-85l4 95h95l16 116h-85l4 95h94l27 197h100l-27 -197h91l27 197h100l-27 -197h77zM335 408h-91l-16 -116h91z" />
    <glyph glyph-name="dollar" unicode="$" horiz-adv-x="560" 
d="M501 250c0 -98 -57 -178 -152 -204v-132h-126v131c-102 28 -165 98 -165 204h132c3 -50 38 -86 89 -86c49 0 89 36 89 86c0 70 -56 81 -111 97c-100 29 -171 88 -171 198c0 88 51 161 137 185v128h126v-130c77 -25 122 -92 129 -171h-125c-10 35 -28 61 -68 61
c-37 0 -66 -32 -66 -69c0 -48 33 -63 73 -77c17 -6 35 -12 52 -17c100 -31 157 -94 157 -204z" />
    <glyph glyph-name="percent" unicode="%" horiz-adv-x="860" 
d="M822 166c0 -99 -81 -181 -180 -181c-100 0 -181 81 -181 181s81 181 181 181s180 -82 180 -181zM632 740l-307 -740h-101l306 740h102zM396 574c0 -99 -81 -180 -180 -180s-180 81 -180 180s80 181 180 181s180 -81 180 -181zM711 166c0 38 -30 70 -69 70
s-70 -31 -70 -70c0 -38 32 -70 70 -70s69 32 69 70zM285 575c0 38 -31 69 -69 69c-39 0 -69 -31 -69 -70c0 -37 32 -69 69 -69c38 0 69 32 69 70z" />
    <glyph glyph-name="ampersand" unicode="&#x26;" horiz-adv-x="680" 
d="M665 71l-97 -86l-102 111c-46 -64 -105 -111 -188 -111c-131 0 -244 102 -244 235c0 101 57 161 139 209c-37 43 -62 80 -62 139c0 106 82 187 188 187c104 0 191 -77 191 -183c0 -86 -45 -142 -117 -182l68 -76l72 123h148l-127 -224zM364 566c0 39 -26 63 -65 63
c-34 0 -62 -27 -62 -61c0 -35 30 -63 53 -86c35 18 74 39 74 84zM373 197l-116 126c-47 -22 -90 -51 -90 -109s45 -99 102 -99c52 0 81 41 104 82z" />
    <glyph glyph-name="quoteright" unicode="&#x2019;" horiz-adv-x="280" 
d="M205 599c0 -82 -51 -133 -132 -133v67c49 10 58 25 58 74h-59v133h133v-141z" />
    <glyph glyph-name="parenleft" unicode="(" horiz-adv-x="380" 
d="M350 -157c-61 21 -94 46 -139 93c-89 94 -137 233 -137 361c0 135 51 279 149 375c41 40 75 60 127 82v-144c-94 -77 -139 -193 -139 -312c0 -109 47 -246 139 -311v-144z" />
    <glyph glyph-name="parenright" unicode=")" horiz-adv-x="380" 
d="M313 300c0 -135 -51 -279 -149 -375c-41 -40 -75 -60 -127 -82v144c94 77 139 193 139 312c0 109 -47 246 -139 311v144c61 -21 94 -46 139 -93c89 -94 137 -233 137 -361z" />
    <glyph glyph-name="asterisk" unicode="*" horiz-adv-x="440" 
d="M374 638l-1 -67l-101 5l56 -83l-61 -36l-46 92l-47 -92l-61 36l57 83l-102 -5l-1 67l102 -5l-55 83l56 39l51 -92l51 92l56 -39l-56 -83z" />
    <glyph glyph-name="plus" unicode="+" 
d="M552 193h-192v-193h-120v193h-192v120h192v193h120v-193h192v-120z" />
    <glyph glyph-name="comma" unicode="," horiz-adv-x="280" 
d="M206 -8c0 -82 -51 -133 -132 -133v67c49 10 58 25 58 74h-59v133h133v-141z" />
    <glyph glyph-name="hyphen" unicode="-" horiz-adv-x="420" 
d="M349 230h-278v118h278v-118z" />
    <glyph glyph-name="period" unicode="." horiz-adv-x="280" 
d="M206 0h-133v133h133v-133z" />
    <glyph glyph-name="slash" unicode="/" horiz-adv-x="460" 
d="M454 740l-314 -840h-134l313 840h135z" />
    <glyph glyph-name="zero" unicode="0" horiz-adv-x="560" 
d="M529 506v-273c0 -146 -102 -248 -248 -248c-78 0 -134 26 -188 81c-48 49 -61 107 -61 174v266c0 150 105 249 253 249c142 0 244 -108 244 -249zM396 245v260c0 66 -45 124 -114 124c-75 0 -117 -57 -117 -129v-252c0 -74 36 -137 116 -137c79 0 115 60 115 134z" />
    <glyph glyph-name="one" unicode="1" horiz-adv-x="560" 
d="M363 0h-133v614h-93v126h226v-740z" />
    <glyph glyph-name="two" unicode="2" horiz-adv-x="560" 
d="M523 0h-479v126l264 246c42 39 82 85 82 146c0 64 -43 111 -108 111c-41 0 -80 -23 -99 -60c-13 -26 -14 -54 -14 -83h-132c-1 8 -1 16 -1 24c0 136 107 245 243 245s244 -107 244 -243c0 -107 -67 -184 -143 -252l-150 -134h293v-126z" />
    <glyph glyph-name="three" unicode="3" horiz-adv-x="560" 
d="M532 233c0 -142 -114 -248 -254 -248c-137 0 -242 102 -250 238h133c6 -62 56 -112 120 -112c65 0 118 56 118 120c0 86 -69 123 -147 123h-22v126h23c50 0 93 24 93 79c0 43 -22 70 -66 70c-39 0 -63 -32 -66 -68h-133c7 85 47 153 129 182c21 7 45 12 68 12
c109 0 201 -90 201 -200c0 -55 -19 -99 -64 -131c80 -34 117 -107 117 -191z" />
    <glyph glyph-name="four" unicode="4" horiz-adv-x="560" 
d="M545 111h-78v-111h-133v111h-319v109l340 520h112v-503h78v-126zM334 237v278h-2l-174 -278h176z" />
    <glyph glyph-name="five" unicode="5" horiz-adv-x="560" 
d="M535 243c0 -143 -114 -258 -257 -258c-129 0 -247 104 -253 235h133c11 -61 52 -109 117 -109c74 0 127 60 127 132c0 69 -55 130 -125 130c-44 0 -74 -19 -100 -53l-119 33l70 387h335v-126h-235l-24 -136c30 13 62 21 95 21c138 0 236 -124 236 -256z" />
    <glyph glyph-name="six" unicode="6" horiz-adv-x="560" 
d="M536 251c0 -144 -109 -266 -256 -266c-149 0 -257 119 -257 265c0 64 25 122 60 175l206 314h156l-164 -250c10 3 20 3 31 3c131 0 224 -114 224 -241zM403 239c0 70 -55 130 -126 130c-68 0 -121 -58 -121 -125c0 -70 51 -133 124 -133c70 0 123 59 123 128z" />
    <glyph glyph-name="seven" unicode="7" horiz-adv-x="560" 
d="M498 614l-267 -614h-148l276 614h-297v126h436v-126z" />
    <glyph glyph-name="eight" unicode="8" horiz-adv-x="560" 
d="M527 225c0 -134 -115 -240 -247 -240s-247 106 -247 240c0 82 38 148 110 186c-41 40 -66 81 -66 140c0 115 88 204 203 204s204 -89 204 -204c0 -60 -26 -100 -67 -140c72 -38 110 -104 110 -186zM359 549c0 44 -35 80 -79 80s-78 -37 -78 -80s35 -79 78 -79
s79 36 79 79zM394 225c0 63 -51 114 -114 114s-114 -51 -114 -114s51 -114 114 -114s114 51 114 114z" />
    <glyph glyph-name="nine" unicode="9" horiz-adv-x="560" 
d="M537 489c0 -64 -25 -122 -60 -175l-206 -314h-156l164 250c-10 -3 -20 -3 -31 -3c-131 0 -224 114 -224 241c0 144 109 266 256 266c149 0 257 -119 257 -265zM404 495c0 70 -50 133 -123 133c-71 0 -124 -59 -124 -128c0 -73 49 -130 124 -130c68 0 123 57 123 125z" />
    <glyph glyph-name="colon" unicode=":" horiz-adv-x="280" 
d="M206 422h-133v133h133v-133zM206 0h-133v133h133v-133z" />
    <glyph glyph-name="semicolon" unicode=";" horiz-adv-x="280" 
d="M206 422h-133v133h133v-133zM206 -8c0 -82 -51 -133 -132 -133v67c49 10 58 25 58 74h-59v133h133v-141z" />
    <glyph glyph-name="less" unicode="&#x3c;" 
d="M554 -8l-508 214v94l508 214v-115l-352 -146l352 -146v-115z" />
    <glyph glyph-name="equal" unicode="=" 
d="M552 305h-504v120h504v-120zM552 81h-504v120h504v-120z" />
    <glyph glyph-name="greater" unicode="&#x3e;" 
d="M554 206l-508 -214v115l352 146l-352 146v115l508 -214v-94z" />
    <glyph glyph-name="question" unicode="?" horiz-adv-x="560" 
d="M491 527c0 -80 -45 -130 -101 -182c-42 -39 -64 -62 -64 -124v-34h-133v29c0 205 165 207 165 311c0 58 -36 95 -94 95c-67 0 -85 -40 -93 -98h-133c8 98 51 180 147 215c25 10 55 16 83 16c131 0 223 -99 223 -228zM326 0h-133v133h133v-133z" />
    <glyph glyph-name="at" unicode="@" horiz-adv-x="740" 
d="M750 415c0 -111 -57 -208 -157 -258c-24 -12 -53 -22 -80 -22c-34 0 -57 23 -58 57h-2c-26 -36 -64 -57 -109 -57c-87 0 -148 78 -148 161c0 122 82 252 215 252c48 0 88 -22 104 -69h2l15 55h83l-67 -256c-3 -12 -8 -27 -8 -39s5 -20 18 -20c50 0 90 71 103 112
c7 22 11 45 11 68c0 152 -110 243 -257 243c-165 0 -283 -133 -283 -294c0 -170 124 -290 293 -290c80 0 162 31 217 91h76c-65 -102 -176 -161 -297 -161c-205 0 -371 155 -371 363c0 202 165 361 366 361c170 0 334 -115 334 -297zM490 379c0 46 -28 85 -77 85
c-77 0 -130 -86 -130 -156c0 -49 27 -89 79 -89c77 0 128 91 128 160z" />
    <glyph glyph-name="A" unicode="A" horiz-adv-x="740" 
d="M732 0h-151l-79 191h-265l-79 -191h-151l308 740h107zM453 320l-84 227h-2l-84 -227h170z" />
    <glyph glyph-name="B" unicode="B" horiz-adv-x="580" 
d="M551 220c0 -72 -33 -136 -92 -176c-53 -36 -128 -44 -191 -44h-198v740h160c76 0 154 -3 214 -57c38 -33 63 -88 63 -138c0 -64 -28 -110 -83 -141c86 -31 127 -92 127 -184zM370 532c0 62 -53 80 -106 80h-57v-160h52c53 0 111 15 111 80zM414 225c0 75 -71 99 -135 99
h-72v-196h69c65 0 138 17 138 97z" />
    <glyph glyph-name="C" unicode="C" horiz-adv-x="780" 
d="M766 529h-156c-52 61 -116 98 -198 98c-136 0 -241 -125 -241 -256c0 -133 109 -258 246 -258c80 0 134 36 186 93h159c-57 -134 -198 -221 -342 -221c-212 0 -386 177 -386 388c0 209 174 382 383 382c151 0 288 -87 349 -226z" />
    <glyph glyph-name="D" unicode="D" horiz-adv-x="700" 
d="M657 368c0 -126 -64 -258 -177 -320c-71 -39 -166 -48 -246 -48h-171v740h168c103 0 223 -15 304 -86c79 -70 122 -181 122 -286zM520 368c0 67 -28 137 -79 182c-69 61 -154 62 -241 62v-484h29c66 0 121 3 180 36c72 40 111 123 111 204z" />
    <glyph glyph-name="E" unicode="E" horiz-adv-x="520" 
d="M459 0h-398v740h398v-128h-261v-181h250v-128h-250v-175h261v-128z" />
    <glyph glyph-name="F" unicode="F" horiz-adv-x="480" 
d="M438 612h-240v-181h229v-128h-229v-303h-137v740h377v-128z" />
    <glyph glyph-name="G" unicode="G" horiz-adv-x="840" 
d="M817 361c0 -211 -185 -376 -392 -376c-215 0 -398 166 -398 385c0 215 182 385 394 385c146 0 308 -90 359 -232h-164c-43 66 -120 104 -198 104c-143 0 -254 -116 -254 -258c0 -34 8 -69 21 -100c42 -100 132 -156 240 -156c94 0 177 52 219 136h-310v128h483v-16z" />
    <glyph glyph-name="H" unicode="H" horiz-adv-x="680" 
d="M610 0h-137v311h-265v-311h-137v740h137v-301h265v301h137v-740z" />
    <glyph glyph-name="I" unicode="I" horiz-adv-x="280" 
d="M209 0h-137v740h137v-740z" />
    <glyph glyph-name="J" unicode="J" horiz-adv-x="480" 
d="M409 210c0 -90 -32 -172 -119 -208c-26 -11 -55 -17 -83 -17c-117 0 -187 78 -205 189h138c8 -35 27 -61 65 -61c51 0 67 44 67 88v539h137v-530z" />
    <glyph glyph-name="K" unicode="K" horiz-adv-x="620" 
d="M620 0h-161l-231 325h-2v-325h-137v740h137v-320h2l231 320h161l-279 -364z" />
    <glyph glyph-name="L" unicode="L" horiz-adv-x="440" 
d="M435 0h-363v740h137v-612h226v-128z" />
    <glyph glyph-name="M" unicode="M" horiz-adv-x="900" 
d="M837 0h-137v555h-3l-189 -555h-116l-190 555h-2v-555h-137v740h190l197 -560h2l195 560h190v-740z" />
    <glyph glyph-name="N" unicode="N" horiz-adv-x="740" 
d="M671 0h-153l-309 538h-2v-538h-137v740h156l306 -538h2v538h137v-740z" />
    <glyph glyph-name="O" unicode="O" horiz-adv-x="840" 
d="M807 368c0 -213 -175 -383 -387 -383s-387 170 -387 383c0 215 173 387 387 387s387 -172 387 -387zM670 369c0 139 -108 258 -250 258s-250 -119 -250 -258c0 -138 110 -256 250 -256s250 118 250 256z" />
    <glyph glyph-name="P" unicode="P" horiz-adv-x="560" 
d="M545 511c0 -66 -19 -126 -70 -170c-64 -56 -127 -59 -208 -59h-58v-282h-137v740h195c81 0 144 -3 208 -59c51 -44 70 -104 70 -170zM408 511c0 90 -79 101 -150 101h-49v-202h44c71 0 155 10 155 101z" />
    <glyph glyph-name="Q" unicode="Q" horiz-adv-x="840" 
d="M824 -15h-19c-69 0 -120 23 -176 61c-62 -40 -136 -61 -210 -61c-212 0 -387 170 -387 383c0 215 173 387 387 387c211 0 387 -170 387 -382c0 -94 -25 -163 -81 -236c34 -22 62 -24 99 -24v-128zM669 369c0 140 -107 258 -250 258c-139 0 -250 -117 -250 -255
c0 -6 0 -11 2 -17c34 8 67 9 101 9c119 0 259 -65 343 -149h2c37 51 52 88 52 154zM520 135c-74 55 -155 101 -249 101c-20 0 -40 -2 -59 -9c44 -70 124 -114 207 -114c38 0 66 8 101 22z" />
    <glyph glyph-name="R" unicode="R" horiz-adv-x="580" 
d="M565 0h-166l-196 283h-2v-283h-137v740h227c65 0 128 -8 180 -50c55 -44 87 -109 87 -179c0 -63 -26 -133 -71 -177c-38 -36 -73 -49 -123 -61zM421 500c0 76 -62 112 -132 112h-88v-226h88c73 0 132 36 132 114z" />
    <glyph glyph-name="S" unicode="S" horiz-adv-x="520" 
d="M493 221c0 -140 -102 -236 -240 -236c-131 0 -235 96 -241 227h144c5 -56 39 -99 98 -99c53 0 102 37 102 93c0 84 -76 100 -141 125c-23 9 -45 17 -67 28c-75 39 -109 100 -109 185c0 122 96 211 217 211c120 0 213 -91 219 -211h-140c-4 50 -31 83 -83 83
c-43 0 -76 -31 -76 -75c0 -71 68 -85 123 -103c112 -37 194 -98 194 -228z" />
    <glyph glyph-name="T" unicode="T" horiz-adv-x="420" 
d="M418 612h-138v-612h-137v612h-137v128h412v-128z" />
    <glyph glyph-name="U" unicode="U" horiz-adv-x="640" 
d="M585 270c0 -60 -8 -124 -43 -175c-50 -71 -136 -110 -221 -110c-83 0 -170 38 -220 106c-37 49 -46 119 -46 179v470h137v-470c0 -86 28 -157 128 -157s128 71 128 157v470h137v-470z" />
    <glyph glyph-name="V" unicode="V" horiz-adv-x="700" 
d="M695 740l-287 -740h-112l-288 740h144l198 -563h2l199 563h144z" />
    <glyph glyph-name="W" unicode="W" horiz-adv-x="900" 
d="M899 740l-215 -740h-109l-120 489h-2l-122 -489h-108l-216 740h140l128 -517h2l127 517h100l124 -517h2l129 517h140z" />
    <glyph glyph-name="X" unicode="X" horiz-adv-x="680" 
d="M676 0h-158l-178 256l-173 -256h-163l255 369l-255 371h163l173 -258l178 258h158l-256 -371z" />
    <glyph glyph-name="Y" unicode="Y" horiz-adv-x="620" 
d="M622 740l-244 -467v-273h-137v273l-243 467h150l161 -340l162 340h151z" />
    <glyph glyph-name="Z" unicode="Z" horiz-adv-x="500" 
d="M481 0h-462v112l283 500h-268v128h428v-119l-281 -493h300v-128z" />
    <glyph glyph-name="bracketleft" unicode="[" horiz-adv-x="320" 
d="M284 -157c-168 39 -218 181 -218 337v269c0 157 68 261 218 305v-146c-17 -8 -33 -17 -45 -31c-33 -39 -36 -108 -36 -156v-265c0 -70 10 -138 81 -167v-146z" />
    <glyph glyph-name="backslash" unicode="\" horiz-adv-x="640" 
d="M544 -100h-134l-314 840h135z" />
    <glyph glyph-name="bracketright" unicode="]" horiz-adv-x="320" 
d="M254 148c0 -157 -68 -261 -218 -305v147c17 7 33 16 45 30c33 39 36 110 36 157v264c0 70 -10 138 -81 167v146c168 -39 218 -181 218 -337v-269z" />
    <glyph glyph-name="asciicircum" unicode="^" 
d="M527 375h-120l-107 248l-108 -248h-119l174 365h106z" />
    <glyph glyph-name="underscore" unicode="_" horiz-adv-x="500" 
d="M500 -125h-500v50h500v-50z" />
    <glyph glyph-name="quoteleft" unicode="&#x2018;" horiz-adv-x="280" 
d="M205 466h-133v141c0 82 51 133 132 133v-68c-33 -6 -58 -17 -58 -56c0 -6 0 -11 1 -17h58v-133z" />
    <glyph glyph-name="a" unicode="a" horiz-adv-x="660" 
d="M613 0h-122v69c-44 -52 -126 -87 -194 -87c-167 0 -270 141 -270 299c0 159 114 293 278 293c61 0 119 -25 164 -66c6 -6 15 -15 20 -23h2v70h122v-555zM487 279c0 95 -64 173 -162 173c-99 0 -165 -82 -165 -177c0 -93 70 -171 165 -171c99 0 162 80 162 175z" />
    <glyph glyph-name="b" unicode="b" horiz-adv-x="660" 
d="M632 280c0 -41 -9 -83 -24 -121c-43 -110 -132 -177 -252 -177c-81 0 -134 25 -187 85v-67h-122v740h133v-235c45 45 109 69 173 69c161 0 279 -138 279 -294zM499 279c0 94 -65 173 -162 173c-92 0 -165 -76 -165 -167c0 -98 65 -181 167 -181c99 0 160 80 160 175z" />
    <glyph glyph-name="c" unicode="c" horiz-adv-x="640" 
d="M610 181c-44 -122 -147 -199 -278 -199c-164 0 -295 135 -295 298c0 162 132 294 294 294c130 0 238 -80 279 -203h-150c-29 52 -67 81 -129 81c-99 0 -161 -79 -161 -174c0 -96 68 -174 167 -174c54 0 95 32 123 77h150z" />
    <glyph glyph-name="d" unicode="d" horiz-adv-x="660" 
d="M618 0h-122v68h-2c-37 -59 -109 -86 -177 -86c-162 0 -283 137 -283 295c0 119 64 224 174 273c34 15 71 24 109 24c68 0 121 -18 168 -68v234h133v-740zM495 278c0 91 -70 174 -164 174c-90 0 -164 -82 -164 -170c0 -92 67 -178 164 -178c94 0 164 83 164 174z" />
    <glyph glyph-name="e" unicode="e" horiz-adv-x="640" 
d="M610 285c0 -22 -3 -45 -8 -67h-431c3 -15 10 -28 18 -40c30 -46 80 -74 135 -74c54 0 101 22 128 71h140c-36 -113 -150 -193 -268 -193c-166 0 -293 129 -293 294c0 166 124 298 292 298c162 0 287 -128 287 -289zM474 325c-13 80 -69 127 -150 127s-138 -48 -157 -127
h307z" />
    <glyph glyph-name="f" unicode="f" horiz-adv-x="280" 
d="M280 624c-56 -1 -81 -6 -85 -69h78v-118h-78v-437h-133v437h-47v118h47c5 60 19 112 65 155c31 28 74 45 116 45h37v-131z" />
    <glyph glyph-name="g" unicode="g" horiz-adv-x="660" 
d="M623 102c0 -133 -51 -249 -178 -302c-39 -17 -83 -26 -125 -26c-123 0 -234 68 -279 184h152c37 -43 81 -62 137 -62c99 0 165 77 170 173l-2 2c-43 -61 -108 -89 -182 -89c-38 0 -76 9 -110 25c-110 50 -174 157 -174 276c0 156 124 291 283 291c71 0 137 -27 177 -87h2
v68h129v-453zM490 283c0 89 -73 169 -163 169c-94 0 -162 -79 -162 -170c0 -95 68 -178 166 -178c97 0 159 88 159 179z" />
    <glyph glyph-name="h" unicode="h" 
d="M546 0h-133v284c0 80 -13 168 -114 168c-99 0 -112 -93 -112 -170v-282h-133v740h133v-224c41 39 87 58 144 58c63 0 133 -35 171 -85c36 -47 44 -109 44 -167v-322z" />
    <glyph glyph-name="i" unicode="i" horiz-adv-x="240" 
d="M186 618h-133v122h133v-122zM186 0h-133v555h133v-555z" />
    <glyph glyph-name="j" unicode="j" horiz-adv-x="260" 
d="M205 618h-133v122h133v-122zM205 24c0 -116 -67 -208 -189 -209v130c55 5 56 31 56 82v528h133v-531z" />
    <glyph glyph-name="k" unicode="k" horiz-adv-x="580" 
d="M571 0h-168l-188 260h-2v-260h-133v740h133v-446h2l177 261h153l-200 -272z" />
    <glyph glyph-name="l" unicode="l" horiz-adv-x="240" 
d="M187 0h-133v740h133v-740z" />
    <glyph glyph-name="m" unicode="m" horiz-adv-x="940" 
d="M887 0h-133v308c0 71 -19 144 -105 144c-37 0 -73 -20 -92 -52c-19 -31 -20 -78 -20 -113v-287h-133v308c0 73 -27 144 -111 144c-100 0 -106 -100 -106 -175v-277h-133v555h122v-47h2c30 49 91 66 145 66c66 0 124 -31 160 -87c44 63 105 87 179 87
c71 0 140 -27 183 -86c33 -46 42 -109 42 -164v-324z" />
    <glyph glyph-name="n" unicode="n" 
d="M547 0h-133v274c0 77 -13 178 -112 178c-35 0 -71 -20 -91 -49c-24 -35 -24 -98 -24 -139v-264h-133v555h123v-48c44 43 88 67 152 67c61 0 128 -30 167 -77c43 -52 51 -124 51 -189v-308z" />
    <glyph glyph-name="o" unicode="o" horiz-adv-x="640" 
d="M615 279c0 -168 -126 -297 -294 -297c-162 0 -296 133 -296 295c0 163 132 297 296 297s294 -132 294 -295zM482 276c0 89 -67 176 -161 176s-163 -85 -163 -175c0 -93 67 -173 163 -173c94 0 161 81 161 172z" />
    <glyph glyph-name="p" unicode="p" horiz-adv-x="660" 
d="M629 280c0 -157 -115 -298 -278 -298c-74 0 -119 21 -171 71v-238h-133v740h122v-65h2c46 58 107 84 180 84c163 0 278 -136 278 -294zM496 278c0 89 -66 174 -160 174c-96 0 -164 -81 -164 -174c0 -69 33 -129 97 -158c20 -10 42 -16 65 -16c94 0 162 84 162 174z" />
    <glyph glyph-name="q" unicode="q" horiz-adv-x="660" 
d="M613 -185h-133v238c-44 -48 -105 -71 -169 -71c-164 0 -280 143 -280 301c0 154 124 291 281 291c75 0 135 -26 177 -89h2v70h122v-740zM487 277c0 91 -66 175 -161 175c-94 0 -162 -81 -162 -172c0 -95 64 -176 163 -176c93 0 160 83 160 173z" />
    <glyph glyph-name="r" unicode="r" horiz-adv-x="320" 
d="M317 445c-87 -3 -121 -52 -121 -133v-312h-133v555h122v-49h2c37 54 64 68 130 68v-129z" />
    <glyph glyph-name="s" unicode="s" horiz-adv-x="440" 
d="M421 176c0 -110 -84 -194 -194 -194c-62 0 -127 24 -166 73c-29 37 -38 74 -42 120h136c9 -40 27 -71 73 -71c32 0 60 22 60 56c0 10 -2 20 -8 29c-18 25 -89 44 -117 54c-74 26 -124 77 -124 159c0 101 89 172 186 172s177 -73 181 -170h-130c-6 29 -23 48 -53 48
c-28 0 -51 -20 -51 -48c0 -29 23 -37 46 -46c16 -6 32 -11 48 -16c86 -27 155 -63 155 -166z" />
    <glyph glyph-name="t" unicode="t" horiz-adv-x="300" 
d="M299 437h-80v-437h-133v437h-65v118h65v185h133v-185h80v-118z" />
    <glyph glyph-name="u" unicode="u" 
d="M544 0h-122v56h-2c-37 -51 -79 -74 -143 -74c-71 0 -145 28 -186 88c-38 55 -41 126 -41 191v294h133v-283c0 -80 16 -168 116 -168c92 0 112 93 112 167v284h133v-555z" />
    <glyph glyph-name="v" unicode="v" horiz-adv-x="560" 
d="M556 555l-225 -555h-104l-224 555h144l134 -368h3l126 368h146z" />
    <glyph glyph-name="w" unicode="w" horiz-adv-x="800" 
d="M789 555l-203 -555h-82l-104 360h-2l-105 -360h-82l-200 555h142l101 -339h2l91 339h106l90 -339h2l102 339h142z" />
    <glyph glyph-name="x" unicode="x" horiz-adv-x="560" 
d="M556 0h-158l-119 190l-118 -190h-158l197 286l-172 269h149l102 -167l101 167h149l-172 -269z" />
    <glyph glyph-name="y" unicode="y" horiz-adv-x="580" 
d="M571 555l-319 -740h-143l102 237l-203 503h152l126 -356l134 356h151z" />
    <glyph glyph-name="z" unicode="z" horiz-adv-x="460" 
d="M442 0h-422v122l246 311h-218v122h377v-122l-246 -311h263v-122z" />
    <glyph glyph-name="braceleft" unicode="{" horiz-adv-x="340" 
d="M317 -191h-90c-15 0 -31 5 -45 11c-53 22 -88 68 -88 127v216c0 53 -53 70 -97 70v99c39 0 97 12 97 61v216c0 59 35 105 88 127c14 6 30 11 45 11h90v-90h-45c-36 0 -41 -37 -41 -65v-212c0 -72 -65 -94 -125 -96v-3c71 -4 125 -22 125 -105v-212c0 -28 5 -65 41 -65h45
v-90z" />
    <glyph glyph-name="bar" unicode="|" 
d="M366 -250h-133v1000h133v-1000z" />
    <glyph glyph-name="braceright" unicode="}" horiz-adv-x="340" 
d="M343 233c-44 0 -97 -17 -97 -70v-216c0 -59 -35 -105 -88 -127c-14 -6 -30 -11 -45 -11h-90v90h45c36 0 41 37 41 65v212c0 83 54 101 125 105v3c-60 2 -125 24 -125 96v212c0 28 -5 65 -41 65h-45v90h90c15 0 31 -5 45 -11c53 -22 88 -68 88 -127v-216
c0 -49 58 -61 97 -61v-99z" />
    <glyph glyph-name="asciitilde" unicode="~" 
d="M533 249c-33 -44 -66 -88 -127 -88c-80 0 -125 68 -217 68c-43 0 -68 -35 -86 -69l-36 96c28 51 65 89 127 89c74 0 160 -68 213 -68c41 0 68 40 90 70z" />
    <glyph glyph-name="exclamdown" unicode="&#xa1;" horiz-adv-x="280" 
d="M207 428h-133v127h133v-127zM207 -185h-133v551h133v-551z" />
    <glyph glyph-name="cent" unicode="&#xa2;" horiz-adv-x="560" 
d="M517 310c-34 -86 -80 -135 -168 -162v-109h-126v109c-106 22 -180 129 -180 235c0 105 75 209 180 230v102h126v-102c45 -15 74 -27 108 -62c29 -30 52 -67 60 -108h-140c-19 30 -59 46 -93 46c-62 0 -108 -49 -108 -110c0 -62 48 -109 110 -109c37 0 59 15 85 40h146z
" />
    <glyph glyph-name="sterling" unicode="&#xa3;" horiz-adv-x="560" 
d="M562 224c0 -31 -7 -63 -20 -91c-40 -92 -123 -133 -220 -133h-284v126h139c12 22 19 47 19 72c0 49 -24 80 -57 113h-141v126h56c-11 26 -16 52 -16 80c0 130 111 238 240 238c94 0 174 -56 215 -139c11 -22 20 -49 20 -73h-135c-10 48 -48 86 -99 86
c-67 0 -108 -56 -108 -119c0 -28 9 -52 28 -73h208v-126h-109c22 -46 31 -67 31 -119c0 -23 -3 -44 -11 -66h11c57 0 100 42 100 99c0 17 -5 34 -10 50h133c8 -16 10 -34 10 -51z" />
    <glyph glyph-name="fraction" unicode="&#x2044;" horiz-adv-x="160" 
d="M282 740l-307 -740h-98l306 740h99z" />
    <glyph glyph-name="yen" unicode="&#xa5;" horiz-adv-x="560" 
d="M570 740l-138 -251h88v-105h-142l-31 -57v-33h164v-105h-164v-189h-133v189h-166v105h166v33l-32 57h-142v105h88l-138 251h137l154 -288l155 288h134z" />
    <glyph glyph-name="florin" unicode="&#x192;" horiz-adv-x="560" 
d="M512 821l-20 -117c-80 0 -97 -49 -110 -118h92l-19 -115h-93l-62 -365c-14 -83 -25 -161 -98 -213c-43 -31 -95 -44 -148 -44c-18 0 -36 1 -54 7l20 114h16c113 0 124 64 140 158l60 343h-94l19 115h95l4 26c10 64 27 112 76 157c40 36 91 55 144 55c11 0 22 1 32 -3z
" />
    <glyph glyph-name="section" unicode="&#xa7;" horiz-adv-x="560" 
d="M530 291c0 -57 -38 -109 -82 -141c34 -34 50 -71 50 -120c0 -121 -103 -188 -215 -188c-127 0 -220 83 -225 212h125c0 -61 43 -90 101 -90c39 0 89 19 89 65c0 39 -42 57 -72 73c-55 29 -111 59 -166 88c-61 33 -107 85 -107 157c0 69 35 111 89 147
c-19 31 -29 57 -29 94c0 113 98 167 200 167c125 0 194 -68 208 -188h-125c-8 44 -37 66 -82 66c-35 0 -76 -14 -76 -56c0 -32 38 -50 63 -63c55 -28 109 -56 164 -84c53 -27 90 -78 90 -139zM405 279c0 33 -32 50 -58 63l-154 78c-19 -13 -40 -41 -40 -65
c0 -30 34 -50 57 -62l155 -79c21 16 40 37 40 65z" />
    <glyph glyph-name="currency" unicode="&#xa4;" horiz-adv-x="602" 
d="M592 122l-66 -67l-81 81c-42 -30 -93 -46 -144 -46c-52 0 -102 17 -144 46l-81 -80l-66 65l83 83c-28 41 -43 88 -43 137c0 50 16 100 45 141l-85 84l66 67l86 -85c41 28 90 43 139 43s98 -14 138 -42l85 83l65 -66l-83 -83c30 -41 46 -91 46 -142
c0 -49 -15 -97 -43 -137zM428 342c0 70 -56 128 -127 128s-127 -59 -127 -129c0 -69 57 -128 127 -128c71 0 127 59 127 129z" />
    <glyph glyph-name="quotesingle" unicode="'" horiz-adv-x="220" 
d="M177 740l-26 -296h-81l-26 296h133z" />
    <glyph glyph-name="quotedblleft" unicode="&#x201c;" horiz-adv-x="480" 
d="M410 466h-133v141c0 82 51 133 132 133v-68c-33 -6 -58 -17 -58 -56c0 -6 1 -11 1 -17h58v-133zM203 466h-133v141c0 82 51 133 132 133v-68c-33 -6 -58 -17 -58 -56c0 -6 1 -11 1 -17h58v-133z" />
    <glyph glyph-name="guillemotleft" unicode="&#xab;" horiz-adv-x="460" 
d="M400 108l-140 131v101l140 129v-123l-68 -57l68 -58v-123zM201 108l-140 131v101l140 129v-123l-68 -57l68 -58v-123z" />
    <glyph glyph-name="guilsinglleft" unicode="&#x2039;" horiz-adv-x="240" 
d="M190 108l-140 131v101l140 129v-123l-68 -57l68 -58v-123z" />
    <glyph glyph-name="guilsinglright" unicode="&#x203a;" horiz-adv-x="240" 
d="M190 239l-140 -131v123l68 58l-68 57v123l140 -129v-101z" />
    <glyph glyph-name="endash" unicode="&#x2013;" horiz-adv-x="500" 
d="M465 230h-430v118h430v-118z" />
    <glyph glyph-name="dagger" unicode="&#x2020;" horiz-adv-x="560" 
d="M509 442h-162v-584h-133v584h-163v113h163v185h133v-185h162v-113z" />
    <glyph glyph-name="daggerdbl" unicode="&#x2021;" horiz-adv-x="560" 
d="M509 67h-163v-209h-133v209h-162v112h162v296h-162v112h162v153h133v-153h163v-112h-163v-296h163v-112z" />
    <glyph glyph-name="periodcentered" unicode="&#xb7;" horiz-adv-x="280" 
d="M206 187h-133v133h133v-133z" />
    <glyph glyph-name="paragraph" unicode="&#xb6;" 
d="M607 637h-79v-740h-113v740h-97v-740h-113v458c-119 0 -212 59 -212 189c0 157 122 196 254 196h360v-103z" />
    <glyph glyph-name="bullet" unicode="&#x2022;" 
d="M453 377c0 -84 -67 -155 -152 -155s-153 71 -153 155c0 85 68 155 154 155c85 0 151 -72 151 -155z" />
    <glyph glyph-name="quotesinglbase" unicode="&#x201a;" horiz-adv-x="280" 
d="M205 -7c0 -81 -51 -134 -132 -134v68c50 8 58 25 58 73h-59v133h133v-140z" />
    <glyph glyph-name="quotedblbase" unicode="&#x201e;" horiz-adv-x="480" 
d="M410 -7c0 -82 -51 -134 -132 -134v68c50 8 58 25 58 73h-59v133h133v-140zM203 -7c0 -82 -51 -134 -132 -134v68c50 8 58 25 58 73h-59v133h133v-140z" />
    <glyph glyph-name="quotedblright" unicode="&#x201d;" horiz-adv-x="480" 
d="M410 599c0 -82 -51 -133 -132 -133v67c49 10 58 25 58 74h-59v133h133v-141zM203 599c0 -82 -51 -133 -132 -133v67c49 10 58 25 58 74h-59v133h133v-141z" />
    <glyph glyph-name="guillemotright" unicode="&#xbb;" horiz-adv-x="460" 
d="M400 239l-140 -131v123l68 58l-68 57v123l140 -129v-101zM201 239l-140 -131v123l68 58l-68 57v123l140 -129v-101z" />
    <glyph glyph-name="ellipsis" unicode="&#x2026;" horiz-adv-x="1000" 
d="M899 0h-133v133h133v-133zM566 0h-133v133h133v-133zM233 0h-133v133h133v-133z" />
    <glyph glyph-name="perthousand" unicode="&#x2030;" horiz-adv-x="1280" 
d="M1222 166c0 -99 -81 -181 -180 -181c-100 0 -181 81 -181 181s81 181 181 181s180 -82 180 -181zM822 166c0 -99 -81 -181 -180 -181c-100 0 -181 81 -181 181s81 181 181 181s180 -82 180 -181zM632 740l-307 -740h-101l306 740h102zM396 574c0 -99 -81 -180 -180 -180
s-180 81 -180 180s80 181 180 181s180 -81 180 -181zM1111 166c0 38 -30 70 -69 70s-70 -31 -70 -70c0 -38 32 -70 70 -70s69 32 69 70zM711 166c0 38 -30 70 -69 70s-70 -31 -70 -70c0 -38 32 -70 70 -70s69 32 69 70zM285 575c0 38 -31 69 -69 69c-39 0 -69 -31 -69 -70
c0 -37 32 -69 69 -69c38 0 69 32 69 70z" />
    <glyph glyph-name="questiondown" unicode="&#xbf;" horiz-adv-x="560" 
d="M366 422h-133v133h133v-133zM521 31c-8 -98 -51 -180 -147 -215c-25 -10 -55 -16 -83 -16c-131 0 -223 99 -223 228c0 80 45 130 101 182c42 39 64 62 64 124v34h133v-29c0 -205 -165 -207 -165 -311c0 -58 36 -95 94 -95c67 0 85 40 93 98h133z" />
    <glyph glyph-name="grave" unicode="`" horiz-adv-x="420" 
d="M329 686l-53 -92l-226 125l57 102z" />
    <glyph glyph-name="acute" unicode="&#xb4;" horiz-adv-x="420" 
d="M368 719l-226 -125l-53 92l222 135z" />
    <glyph glyph-name="circumflex" unicode="&#x2c6;" horiz-adv-x="540" 
d="M470 631h-145l-53 64l-56 -64h-145l148 138h105z" />
    <glyph glyph-name="tilde" unicode="&#x2dc;" horiz-adv-x="480" 
d="M437 683c-35 -28 -68 -47 -114 -47c-50 0 -95 27 -145 27c-30 0 -54 -7 -80 -20l-54 81c33 25 74 43 116 43c51 0 97 -29 147 -29c28 0 53 8 76 23z" />
    <glyph glyph-name="macron" unicode="&#xaf;" horiz-adv-x="420" 
d="M349 638h-277v111h277v-111z" />
    <glyph glyph-name="breve" unicode="&#x2d8;" horiz-adv-x="480" 
d="M439 765c-15 -102 -106 -137 -199 -137c-92 0 -183 36 -198 137h108c20 -31 56 -40 90 -40c35 0 71 8 91 40h108z" />
    <glyph glyph-name="dotaccent" unicode="&#x2d9;" horiz-adv-x="280" 
d="M207 636h-133v133h133v-133z" />
    <glyph glyph-name="dieresis" unicode="&#xa8;" horiz-adv-x="500" 
d="M422 629h-133v133h133v-133zM212 629h-134v133h134v-133z" />
    <glyph glyph-name="ring" unicode="&#x2da;" horiz-adv-x="360" 
d="M288 698c0 -59 -49 -107 -108 -107c-58 0 -107 49 -107 107c0 59 47 108 107 108s108 -48 108 -108zM221 698c0 23 -18 41 -41 41s-40 -19 -40 -41s18 -40 40 -40s41 17 41 40z" />
    <glyph glyph-name="cedilla" unicode="&#xb8;" horiz-adv-x="340" 
d="M298 -153c0 -60 -41 -98 -100 -98c-46 0 -100 37 -100 87h53c4 -23 24 -37 47 -37c28 0 46 21 46 48c0 26 -20 50 -47 50c-18 0 -34 -6 -43 -22l-49 19l49 112l50 -7l-24 -54c8 1 17 2 25 2c57 0 93 -45 93 -100z" />
    <glyph glyph-name="hungarumlaut" unicode="&#x2dd;" horiz-adv-x="700" 
d="M626 760l-207 -150l-57 76l197 163zM384 760l-207 -150l-57 76l197 163z" />
    <glyph glyph-name="ogonek" unicode="&#x2db;" horiz-adv-x="340" 
d="M194 -204c-60 0 -115 32 -115 97c0 52 44 86 86 107h70c-26 -17 -64 -43 -64 -79c0 -29 24 -45 51 -45c14 0 27 5 40 11v-78c-24 -9 -42 -13 -68 -13z" />
    <glyph glyph-name="caron" unicode="&#x2c7;" horiz-adv-x="540" 
d="M470 761l-146 -138h-105l-148 138h145l56 -64l53 64h145z" />
    <glyph glyph-name="emdash" unicode="&#x2014;" horiz-adv-x="1000" 
d="M965 230h-930v118h930v-118z" />
    <glyph glyph-name="AE" unicode="&#xc6;" horiz-adv-x="900" 
d="M824 0h-357v191h-196l-115 -191h-161l489 740h340v-128h-220v-181h209v-128h-209v-175h220v-128zM467 319v195h-2l-113 -195h115z" />
    <glyph glyph-name="ordfeminine" unicode="&#xaa;" horiz-adv-x="360" 
d="M334 448h-88v25h-2c-17 -25 -47 -35 -76 -35c-89 0 -149 74 -149 160c0 84 63 157 149 157c28 0 60 -11 76 -36h2v26h88v-297zM248 597c0 41 -29 73 -70 73c-42 0 -69 -35 -69 -75c0 -39 29 -72 69 -72c42 0 70 34 70 74z" />
    <glyph glyph-name="Lslash" unicode="&#x141;" horiz-adv-x="480" 
d="M460 0h-363v273l-71 -48v138l71 48v329h137v-237l128 86v-138l-128 -86v-237h226v-128z" />
    <glyph glyph-name="Oslash" unicode="&#xd8;" horiz-adv-x="840" 
d="M807 368c0 -213 -175 -383 -387 -383c-54 0 -107 11 -156 33l-61 -89l-110 75l60 88c-77 72 -120 171 -120 276c0 215 173 387 387 387c56 0 112 -12 162 -36v1l63 94l109 -75l-64 -94c76 -72 117 -172 117 -277zM670 369c0 59 -20 116 -56 163l-276 -405
c26 -9 54 -14 82 -14c140 0 250 118 250 256zM507 611c-28 11 -57 16 -87 16c-142 0 -250 -119 -250 -258c0 -60 22 -118 60 -164z" />
    <glyph glyph-name="OE" unicode="&#x152;" horiz-adv-x="1060" 
d="M1007 0h-357v79c-57 -62 -159 -94 -242 -94c-52 0 -104 12 -151 34c-139 64 -220 198 -220 350c0 153 79 288 220 352c47 22 99 34 151 34c84 0 185 -32 242 -95v80h357v-128h-220v-181h208v-128h-208v-175h220v-128zM655 365c0 135 -101 262 -242 262
c-150 0 -239 -131 -239 -271c0 -30 7 -60 18 -87c38 -94 122 -156 224 -156c137 0 239 119 239 252z" />
    <glyph glyph-name="ordmasculine" unicode="&#xba;" horiz-adv-x="360" 
d="M338 597c0 -89 -67 -159 -157 -159c-86 0 -158 72 -158 158c0 87 70 159 158 159s157 -71 157 -158zM248 595c0 37 -27 75 -67 75c-41 0 -68 -35 -68 -74c0 -38 28 -73 68 -73c39 0 67 34 67 72z" />
    <glyph glyph-name="ae" unicode="&#xe6;" horiz-adv-x="1080" 
d="M1048 267c0 -16 -1 -33 -4 -49h-432c16 -65 82 -114 149 -114c51 0 110 21 132 71h140c-8 -25 -22 -49 -37 -70c-53 -71 -135 -123 -225 -123c-66 0 -121 20 -162 74h-2v-56h-122v56h-2c-39 -55 -105 -74 -170 -74c-159 0 -284 139 -284 295c0 158 125 297 286 297
c74 0 118 -18 170 -69v50h122v-50c48 51 100 69 170 69c148 0 271 -146 271 -289v-18zM915 325c-11 78 -76 127 -153 127s-137 -53 -154 -127h307zM481 278c0 89 -65 174 -159 174c-96 0 -160 -85 -160 -176c0 -88 67 -172 159 -172c94 0 160 84 160 174z" />
    <glyph glyph-name="dotlessi" unicode="&#x131;" horiz-adv-x="240" 
d="M186 0h-133v555h133v-555z" />
    <glyph glyph-name="lslash" unicode="&#x142;" horiz-adv-x="320" 
d="M305 393l-73 -49v-344h-133v258l-65 -42v142l65 43v339h133v-252l73 48v-143z" />
    <glyph glyph-name="oslash" unicode="&#xf8;" horiz-adv-x="660" 
d="M625 279c0 -168 -126 -297 -294 -297c-38 0 -76 8 -111 22l-38 -54l-99 68l37 54c-54 54 -85 128 -85 205c0 163 132 297 296 297c40 0 79 -8 116 -24c1 1 36 53 39 58l99 -69l-40 -58c52 -55 80 -126 80 -202zM492 276c0 32 -8 64 -25 91l-176 -258c13 -3 27 -5 40 -5
c94 0 161 81 161 172zM375 445c-14 5 -29 7 -44 7c-94 0 -163 -85 -163 -175c0 -34 9 -67 27 -96z" />
    <glyph glyph-name="oe" unicode="&#x153;" horiz-adv-x="1080" 
d="M1050 288c0 -23 -2 -47 -6 -70h-434c20 -67 82 -114 152 -114c52 0 108 22 131 71h138c-37 -113 -150 -193 -269 -193c-88 0 -170 42 -219 116c-53 -80 -127 -116 -223 -116c-163 0 -290 134 -290 295s129 297 292 297c93 0 167 -40 221 -114c56 75 122 114 218 114
c158 0 289 -127 289 -286zM915 325c-18 74 -75 127 -153 127c-81 0 -133 -52 -154 -127h307zM486 277c0 90 -68 175 -162 175c-91 0 -161 -81 -161 -170c0 -92 65 -178 162 -178c94 0 161 83 161 173z" />
    <glyph glyph-name="germandbls" unicode="&#xdf;" 
d="M585 214c0 -136 -83 -232 -223 -232c-78 0 -144 19 -187 91h-2v-73h-122v488c0 108 36 209 142 251c26 10 55 16 83 16c118 0 215 -90 215 -210c0 -52 -19 -108 -66 -136c99 -24 160 -92 160 -195zM452 200c0 109 -111 116 -194 116v118c64 0 100 43 100 105
c0 52 -30 94 -85 94c-75 0 -89 -70 -89 -130v-314h86c7 -45 45 -85 92 -85c53 0 90 44 90 96z" />
    <glyph glyph-name="logicalnot" unicode="&#xac;" 
d="M552 108h-120v197h-384v120h504v-317z" />
    <glyph glyph-name="mu" unicode="&#xb5;" horiz-adv-x="630" 
d="M558 0h-126v48h-3c-26 -45 -65 -66 -120 -66c-39 0 -77 11 -104 42v-204h-133v735h133v-262c0 -37 4 -102 22 -135c18 -35 43 -54 82 -54c104 0 116 111 116 199v252h133v-555z" />
    <glyph glyph-name="trademark" unicode="&#x2122;" horiz-adv-x="1000" 
d="M821 296h-94v306h-2l-109 -306h-78l-109 306h-2v-306h-94v444h126l119 -322l118 322h125v-444zM274 657h-86v-361h-94v361h-85v83h265v-83z" />
    <glyph glyph-name="Eth" unicode="&#xd0;" horiz-adv-x="734" 
d="M691 368c0 -126 -64 -258 -177 -320c-71 -39 -166 -48 -246 -48h-171v311h-72v128h72v301h168c103 0 223 -15 304 -86c79 -70 122 -181 122 -286zM554 368c0 67 -28 137 -79 182c-69 61 -154 62 -241 62v-173h137v-128h-137v-183h29c66 0 121 3 180 36
c72 40 111 123 111 204z" />
    <glyph glyph-name="onehalf" unicode="&#xbd;" horiz-adv-x="756" 
d="M724 0h-304v81l159 147c23 21 49 47 49 80c0 35 -24 59 -59 59c-47 0 -58 -42 -58 -80h-95c-1 6 -1 12 -1 18c0 85 71 148 154 148s155 -62 155 -147c0 -63 -42 -111 -87 -150l-80 -70h167v-86zM515 740l-307 -740h-98l306 740h99zM176 296h-96v358h-55v86h151v-444z" />
    <glyph glyph-name="plusminus" unicode="&#xb1;" 
d="M552 342h-192v-150h-120v150h-192v120h192v156h120v-156h192v-120zM552 0h-504v120h504v-120z" />
    <glyph glyph-name="Thorn" unicode="&#xde;" horiz-adv-x="560" 
d="M545 371c0 -66 -19 -126 -70 -170c-64 -56 -127 -59 -208 -59h-58v-142h-137v740h137v-140h58c81 0 144 -3 208 -59c51 -44 70 -104 70 -170zM408 371c0 90 -79 101 -150 101h-49v-202h44c71 0 155 10 155 101z" />
    <glyph glyph-name="onequarter" unicode="&#xbc;" horiz-adv-x="706" 
d="M669 65h-49v-65h-90v65h-198v70l212 309h76v-297h49v-82zM515 740l-307 -740h-98l306 740h99zM176 296h-96v358h-55v86h151v-444zM530 147v159h-2l-97 -159h99z" />
    <glyph glyph-name="divide" unicode="&#xf7;" 
d="M360 406h-120v120h120v-120zM552 193h-504v120h504v-120zM360 -20h-120v120h120v-120z" />
    <glyph glyph-name="brokenbar" unicode="&#xa6;" 
d="M366 325h-133v350h133v-350zM366 -175h-133v350h133v-350z" />
    <glyph glyph-name="degree" unicode="&#xb0;" horiz-adv-x="400" 
d="M343 569c0 -80 -63 -143 -143 -143s-143 63 -143 143s63 143 143 143s143 -63 143 -143zM271 569c0 38 -32 74 -71 74s-71 -36 -71 -74s32 -74 71 -74s71 36 71 74z" />
    <glyph glyph-name="thorn" unicode="&#xfe;" horiz-adv-x="660" 
d="M629 280c0 -157 -115 -298 -278 -298c-71 0 -121 23 -171 71v-238h-133v925h133v-246h2c43 53 101 80 169 80c163 0 278 -136 278 -294zM496 278c0 89 -66 174 -160 174c-96 0 -164 -81 -164 -174c0 -69 33 -129 97 -158c20 -10 42 -16 65 -16c94 0 162 84 162 174z" />
    <glyph glyph-name="threequarters" unicode="&#xbe;" horiz-adv-x="840" 
d="M803 65h-49v-65h-90v65h-198v70l212 309h76v-297h49v-82zM649 740l-307 -740h-98l306 740h99zM338 437c0 -90 -76 -150 -162 -150c-87 0 -154 61 -158 148h96c3 -36 29 -62 65 -62s63 27 63 63c0 62 -49 67 -99 67v86c29 0 66 -2 66 39c0 23 -11 35 -34 35
c-21 0 -28 -18 -28 -36h-96c4 71 54 122 126 122c67 0 128 -53 128 -122c0 -30 -10 -56 -34 -76c45 -20 67 -67 67 -114zM664 147v159h-2l-97 -159h99z" />
    <glyph glyph-name="registered" unicode="&#xae;" horiz-adv-x="740" 
d="M752 370c0 -210 -171 -382 -381 -382c-211 0 -383 170 -383 382s172 382 383 382s381 -172 381 -382zM662 370c0 162 -128 296 -292 296s-292 -133 -292 -296c0 -162 128 -296 292 -296s292 134 292 296zM551 148h-89c-13 20 -12 58 -13 81c-2 39 -4 76 -47 89
c-7 2 -24 5 -31 5h-77v-175h-87v437h188c77 0 150 -29 150 -119c0 -54 -27 -93 -81 -106v-2c60 -17 70 -52 73 -109c1 -29 -1 -75 14 -101zM456 463c0 4 -2 13 -4 17c-11 32 -41 34 -70 34h-88v-121h84c48 0 78 16 78 70z" />
    <glyph glyph-name="minus" unicode="&#x2212;" 
d="M552 193h-504v120h504v-120z" />
    <glyph glyph-name="eth" unicode="&#xf0;" horiz-adv-x="640" 
d="M616 295c0 -172 -115 -313 -293 -313c-162 0 -296 133 -296 295c0 164 132 296 296 296c18 0 36 -3 52 -11l2 2c-20 19 -42 37 -66 53l-151 -45l-86 56l144 44c-34 16 -70 30 -106 41l150 41c32 -9 62 -24 91 -40l131 40l86 -60l-132 -39c109 -92 178 -215 178 -360z
M484 276c0 88 -67 176 -160 176c-95 0 -164 -84 -164 -175c0 -93 67 -173 163 -173c94 0 161 81 161 172z" />
    <glyph glyph-name="multiply" unicode="&#xd7;" 
d="M541 94l-82 -82l-159 160l-159 -160l-82 82l159 159l-159 159l82 82l159 -159l159 159l82 -82l-160 -159z" />
    <glyph glyph-name="copyright" unicode="&#xa9;" horiz-adv-x="740" 
d="M752 370c0 -210 -171 -382 -381 -382c-211 0 -383 170 -383 382s172 382 383 382s381 -172 381 -382zM662 370c0 162 -128 296 -292 296s-292 -133 -292 -296c0 -162 128 -296 292 -296s292 134 292 296zM568 295c-11 -95 -102 -152 -192 -152c-133 0 -215 100 -215 228
s82 228 215 228c90 0 181 -57 192 -152h-90c-17 52 -47 77 -102 77c-86 0 -125 -76 -125 -153c0 -81 35 -153 125 -153c56 0 86 23 102 77h90z" />
    <glyph glyph-name="Aacute" unicode="&#xc1;" horiz-adv-x="740" 
d="M732 0h-151l-79 191h-265l-79 -191h-151l308 740h107zM453 320l-84 227h-2l-84 -227h170zM528 919l-226 -125l-53 92l222 135z" />
    <glyph glyph-name="Acircumflex" unicode="&#xc2;" horiz-adv-x="740" 
d="M732 0h-151l-79 191h-265l-79 -191h-151l308 740h107zM453 320l-84 227h-2l-84 -227h170zM570 806h-145l-53 64l-56 -64h-145l148 138h105z" />
    <glyph glyph-name="Adieresis" unicode="&#xc4;" horiz-adv-x="740" 
d="M732 0h-151l-79 191h-265l-79 -191h-151l308 740h107zM453 320l-84 227h-2l-84 -227h170zM542 806h-133v133h133v-133zM332 806h-134v133h134v-133z" />
    <glyph glyph-name="Agrave" unicode="&#xc0;" horiz-adv-x="740" 
d="M732 0h-151l-79 191h-265l-79 -191h-151l308 740h107zM453 320l-84 227h-2l-84 -227h170zM489 886l-53 -92l-226 125l57 102z" />
    <glyph glyph-name="Aring" unicode="&#xc5;" horiz-adv-x="740" 
d="M732 0h-151l-79 191h-265l-79 -191h-151l308 740h107zM453 320l-84 227h-2l-84 -227h170zM478 861c0 -59 -49 -107 -108 -107c-58 0 -107 49 -107 107c0 59 47 108 107 108s108 -48 108 -108zM411 861c0 23 -18 41 -41 41s-40 -19 -40 -41s18 -40 40 -40s41 17 41 40z
" />
    <glyph glyph-name="Atilde" unicode="&#xc3;" horiz-adv-x="740" 
d="M732 0h-151l-79 191h-265l-79 -191h-151l308 740h107zM453 320l-84 227h-2l-84 -227h170zM567 853c-35 -28 -68 -47 -114 -47c-50 0 -95 27 -145 27c-30 0 -54 -7 -80 -20l-54 81c33 25 74 43 116 43c51 0 97 -29 147 -29c28 0 53 8 76 23z" />
    <glyph glyph-name="Ccedilla" unicode="&#xc7;" horiz-adv-x="780" 
d="M508 -153c0 -60 -41 -98 -100 -98c-46 0 -100 37 -100 87h53c4 -23 24 -37 47 -37c28 0 46 21 46 48c0 26 -20 50 -47 50c-18 0 -34 -6 -43 -22l-49 19l42 96c-183 31 -323 193 -323 383c0 209 174 382 383 382c151 0 288 -87 349 -226h-156c-52 61 -116 98 -198 98
c-136 0 -241 -125 -241 -256c0 -133 109 -258 246 -258c80 0 134 36 186 93h159c-57 -134 -198 -221 -342 -221h-12l-18 -40c8 1 17 2 25 2c57 0 93 -45 93 -100z" />
    <glyph glyph-name="Eacute" unicode="&#xc9;" horiz-adv-x="520" 
d="M459 0h-398v740h398v-128h-261v-181h250v-128h-250v-175h261v-128zM418 919l-226 -125l-53 92l222 135z" />
    <glyph glyph-name="Ecircumflex" unicode="&#xca;" horiz-adv-x="520" 
d="M459 0h-398v740h398v-128h-261v-181h250v-128h-250v-175h261v-128zM460 806h-145l-53 64l-56 -64h-145l148 138h105z" />
    <glyph glyph-name="Edieresis" unicode="&#xcb;" horiz-adv-x="520" 
d="M459 0h-398v740h398v-128h-261v-181h250v-128h-250v-175h261v-128zM432 806h-133v133h133v-133zM222 806h-134v133h134v-133z" />
    <glyph glyph-name="Egrave" unicode="&#xc8;" horiz-adv-x="520" 
d="M459 0h-398v740h398v-128h-261v-181h250v-128h-250v-175h261v-128zM379 886l-53 -92l-226 125l57 102z" />
    <glyph glyph-name="Iacute" unicode="&#xcd;" horiz-adv-x="280" 
d="M209 0h-137v740h137v-740zM323 919l-226 -125l-53 92l222 135z" />
    <glyph glyph-name="Icircumflex" unicode="&#xce;" horiz-adv-x="280" 
d="M209 0h-137v740h137v-740zM340 806h-145l-53 64l-56 -64h-145l148 138h105z" />
    <glyph glyph-name="Idieresis" unicode="&#xcf;" horiz-adv-x="280" 
d="M209 0h-137v740h137v-740zM312 806h-133v133h133v-133zM102 806h-134v133h134v-133z" />
    <glyph glyph-name="Igrave" unicode="&#xcc;" horiz-adv-x="280" 
d="M209 0h-137v740h137v-740zM234 886l-53 -92l-226 125l57 102z" />
    <glyph glyph-name="Ntilde" unicode="&#xd1;" horiz-adv-x="740" 
d="M671 0h-153l-309 538h-2v-538h-137v740h156l306 -538h2v538h137v-740zM567 853c-35 -28 -68 -47 -114 -47c-50 0 -95 27 -145 27c-30 0 -54 -7 -80 -20l-54 81c33 25 74 43 116 43c51 0 97 -29 147 -29c28 0 53 8 76 23z" />
    <glyph glyph-name="Oacute" unicode="&#xd3;" horiz-adv-x="840" 
d="M807 368c0 -213 -175 -383 -387 -383s-387 170 -387 383c0 215 173 387 387 387s387 -172 387 -387zM670 369c0 139 -108 258 -250 258s-250 -119 -250 -258c0 -138 110 -256 250 -256s250 118 250 256zM578 919l-226 -125l-53 92l222 135z" />
    <glyph glyph-name="Ocircumflex" unicode="&#xd4;" horiz-adv-x="840" 
d="M807 368c0 -213 -175 -383 -387 -383s-387 170 -387 383c0 215 173 387 387 387s387 -172 387 -387zM670 369c0 139 -108 258 -250 258s-250 -119 -250 -258c0 -138 110 -256 250 -256s250 118 250 256zM620 806h-145l-53 64l-56 -64h-145l148 138h105z" />
    <glyph glyph-name="Odieresis" unicode="&#xd6;" horiz-adv-x="840" 
d="M807 368c0 -213 -175 -383 -387 -383s-387 170 -387 383c0 215 173 387 387 387s387 -172 387 -387zM670 369c0 139 -108 258 -250 258s-250 -119 -250 -258c0 -138 110 -256 250 -256s250 118 250 256zM592 806h-133v133h133v-133zM382 806h-134v133h134v-133z" />
    <glyph glyph-name="Ograve" unicode="&#xd2;" horiz-adv-x="840" 
d="M807 368c0 -213 -175 -383 -387 -383s-387 170 -387 383c0 215 173 387 387 387s387 -172 387 -387zM670 369c0 139 -108 258 -250 258s-250 -119 -250 -258c0 -138 110 -256 250 -256s250 118 250 256zM539 886l-53 -92l-226 125l57 102z" />
    <glyph glyph-name="Otilde" unicode="&#xd5;" horiz-adv-x="840" 
d="M807 368c0 -213 -175 -383 -387 -383s-387 170 -387 383c0 215 173 387 387 387s387 -172 387 -387zM670 369c0 139 -108 258 -250 258s-250 -119 -250 -258c0 -138 110 -256 250 -256s250 118 250 256zM617 853c-35 -28 -68 -47 -114 -47c-50 0 -95 27 -145 27
c-30 0 -54 -7 -80 -20l-54 81c33 25 74 43 116 43c51 0 97 -29 147 -29c28 0 53 8 76 23z" />
    <glyph glyph-name="Scaron" unicode="&#x160;" horiz-adv-x="520" 
d="M493 221c0 -140 -102 -236 -240 -236c-131 0 -235 96 -241 227h144c5 -56 39 -99 98 -99c53 0 102 37 102 93c0 84 -76 100 -141 125c-23 9 -45 17 -67 28c-75 39 -109 100 -109 185c0 122 96 211 217 211c120 0 213 -91 219 -211h-140c-4 50 -31 83 -83 83
c-43 0 -76 -31 -76 -75c0 -71 68 -85 123 -103c112 -37 194 -98 194 -228zM460 944l-146 -138h-105l-148 138h145l56 -64l53 64h145z" />
    <glyph glyph-name="Uacute" unicode="&#xda;" horiz-adv-x="640" 
d="M585 270c0 -60 -8 -124 -43 -175c-50 -71 -136 -110 -221 -110c-83 0 -170 38 -220 106c-37 49 -46 119 -46 179v470h137v-470c0 -86 28 -157 128 -157s128 71 128 157v470h137v-470zM513 919l-226 -125l-53 92l222 135z" />
    <glyph glyph-name="Ucircumflex" unicode="&#xdb;" horiz-adv-x="640" 
d="M585 270c0 -60 -8 -124 -43 -175c-50 -71 -136 -110 -221 -110c-83 0 -170 38 -220 106c-37 49 -46 119 -46 179v470h137v-470c0 -86 28 -157 128 -157s128 71 128 157v470h137v-470zM520 806h-145l-53 64l-56 -64h-145l148 138h105z" />
    <glyph glyph-name="Udieresis" unicode="&#xdc;" horiz-adv-x="640" 
d="M585 270c0 -60 -8 -124 -43 -175c-50 -71 -136 -110 -221 -110c-83 0 -170 38 -220 106c-37 49 -46 119 -46 179v470h137v-470c0 -86 28 -157 128 -157s128 71 128 157v470h137v-470zM492 806h-133v133h133v-133zM282 806h-134v133h134v-133z" />
    <glyph glyph-name="Ugrave" unicode="&#xd9;" horiz-adv-x="640" 
d="M585 270c0 -60 -8 -124 -43 -175c-50 -71 -136 -110 -221 -110c-83 0 -170 38 -220 106c-37 49 -46 119 -46 179v470h137v-470c0 -86 28 -157 128 -157s128 71 128 157v470h137v-470zM404 886l-53 -92l-226 125l57 102z" />
    <glyph glyph-name="Yacute" unicode="&#xdd;" horiz-adv-x="620" 
d="M622 740l-244 -467v-273h-137v273l-243 467h150l161 -340l162 340h151zM503 919l-226 -125l-53 92l222 135z" />
    <glyph glyph-name="Ydieresis" unicode="&#x178;" horiz-adv-x="620" 
d="M622 740l-244 -467v-273h-137v273l-243 467h150l161 -340l162 340h151zM482 806h-133v133h133v-133zM272 806h-134v133h134v-133z" />
    <glyph glyph-name="Zcaron" unicode="&#x17d;" horiz-adv-x="500" 
d="M481 0h-462v112l283 500h-268v128h428v-119l-281 -493h300v-128zM475 944l-146 -138h-105l-148 138h145l56 -64l53 64h145z" />
    <glyph glyph-name="aacute" unicode="&#xe1;" horiz-adv-x="660" 
d="M613 0h-122v69c-44 -52 -126 -87 -194 -87c-167 0 -270 141 -270 299c0 159 114 293 278 293c61 0 119 -25 164 -66c6 -6 15 -15 20 -23h2v70h122v-555zM487 279c0 95 -64 173 -162 173c-99 0 -165 -82 -165 -177c0 -93 70 -171 165 -171c99 0 162 80 162 175zM488 749
l-226 -125l-53 92l222 135z" />
    <glyph glyph-name="acircumflex" unicode="&#xe2;" horiz-adv-x="660" 
d="M613 0h-122v69c-44 -52 -126 -87 -194 -87c-167 0 -270 141 -270 299c0 159 114 293 278 293c61 0 119 -25 164 -66c6 -6 15 -15 20 -23h2v70h122v-555zM487 279c0 95 -64 173 -162 173c-99 0 -165 -82 -165 -177c0 -93 70 -171 165 -171c99 0 162 80 162 175zM530 636
h-145l-53 64l-56 -64h-145l148 138h105z" />
    <glyph glyph-name="adieresis" unicode="&#xe4;" horiz-adv-x="660" 
d="M613 0h-122v69c-44 -52 -126 -87 -194 -87c-167 0 -270 141 -270 299c0 159 114 293 278 293c61 0 119 -25 164 -66c6 -6 15 -15 20 -23h2v70h122v-555zM487 279c0 95 -64 173 -162 173c-99 0 -165 -82 -165 -177c0 -93 70 -171 165 -171c99 0 162 80 162 175zM502 636
h-133v133h133v-133zM292 636h-134v133h134v-133z" />
    <glyph glyph-name="agrave" unicode="&#xe0;" horiz-adv-x="660" 
d="M613 0h-122v69c-44 -52 -126 -87 -194 -87c-167 0 -270 141 -270 299c0 159 114 293 278 293c61 0 119 -25 164 -66c6 -6 15 -15 20 -23h2v70h122v-555zM487 279c0 95 -64 173 -162 173c-99 0 -165 -82 -165 -177c0 -93 70 -171 165 -171c99 0 162 80 162 175zM449 716
l-53 -92l-226 125l57 102z" />
    <glyph glyph-name="aring" unicode="&#xe5;" horiz-adv-x="660" 
d="M613 0h-122v69c-44 -52 -126 -87 -194 -87c-167 0 -270 141 -270 299c0 159 114 293 278 293c61 0 119 -25 164 -66c6 -6 15 -15 20 -23h2v70h122v-555zM487 279c0 95 -64 173 -162 173c-99 0 -165 -82 -165 -177c0 -93 70 -171 165 -171c99 0 162 80 162 175zM438 726
c0 -59 -49 -107 -108 -107c-58 0 -107 49 -107 107c0 59 47 108 107 108s108 -48 108 -108zM371 726c0 23 -18 41 -41 41s-40 -19 -40 -41s18 -40 40 -40s41 17 41 40z" />
    <glyph glyph-name="atilde" unicode="&#xe3;" horiz-adv-x="660" 
d="M613 0h-122v69c-44 -52 -126 -87 -194 -87c-167 0 -270 141 -270 299c0 159 114 293 278 293c61 0 119 -25 164 -66c6 -6 15 -15 20 -23h2v70h122v-555zM487 279c0 95 -64 173 -162 173c-99 0 -165 -82 -165 -177c0 -93 70 -171 165 -171c99 0 162 80 162 175zM527 683
c-35 -28 -68 -47 -114 -47c-50 0 -95 27 -145 27c-30 0 -54 -7 -80 -20l-54 81c33 25 74 43 116 43c51 0 97 -29 147 -29c28 0 53 8 76 23z" />
    <glyph glyph-name="ccedilla" unicode="&#xe7;" horiz-adv-x="640" 
d="M610 181c-45 -125 -148 -199 -281 -199l-17 -37c8 1 17 2 25 2c57 0 93 -45 93 -100c0 -60 -41 -98 -100 -98c-47 0 -99 36 -100 87h53c4 -23 24 -37 47 -37c28 0 46 21 46 48c0 26 -20 50 -47 50c-18 0 -34 -6 -43 -22l-49 19l41 94c-141 27 -241 148 -241 292
c0 162 132 294 294 294c130 0 238 -80 279 -203h-150c-29 52 -66 81 -129 81c-99 0 -161 -79 -161 -174c0 -96 68 -174 167 -174c55 0 95 32 123 77h150z" />
    <glyph glyph-name="eacute" unicode="&#xe9;" horiz-adv-x="640" 
d="M610 285c0 -22 -3 -45 -8 -67h-431c3 -15 10 -28 18 -40c30 -46 80 -74 135 -74c54 0 101 22 128 71h140c-36 -113 -150 -193 -268 -193c-166 0 -293 129 -293 294c0 166 124 298 292 298c162 0 287 -128 287 -289zM474 325c-13 80 -69 127 -150 127s-138 -48 -157 -127
h307zM478 749l-226 -125l-53 92l222 135z" />
    <glyph glyph-name="ecircumflex" unicode="&#xea;" horiz-adv-x="640" 
d="M610 285c0 -22 -3 -45 -8 -67h-431c3 -15 10 -28 18 -40c30 -46 80 -74 135 -74c54 0 101 22 128 71h140c-36 -113 -150 -193 -268 -193c-166 0 -293 129 -293 294c0 166 124 298 292 298c162 0 287 -128 287 -289zM474 325c-13 80 -69 127 -150 127s-138 -48 -157 -127
h307zM520 636h-145l-53 64l-56 -64h-145l148 138h105z" />
    <glyph glyph-name="edieresis" unicode="&#xeb;" horiz-adv-x="640" 
d="M610 285c0 -22 -3 -45 -8 -67h-431c3 -15 10 -28 18 -40c30 -46 80 -74 135 -74c54 0 101 22 128 71h140c-36 -113 -150 -193 -268 -193c-166 0 -293 129 -293 294c0 166 124 298 292 298c162 0 287 -128 287 -289zM474 325c-13 80 -69 127 -150 127s-138 -48 -157 -127
h307zM492 636h-133v133h133v-133zM282 636h-134v133h134v-133z" />
    <glyph glyph-name="egrave" unicode="&#xe8;" horiz-adv-x="640" 
d="M610 285c0 -22 -3 -45 -8 -67h-431c3 -15 10 -28 18 -40c30 -46 80 -74 135 -74c54 0 101 22 128 71h140c-36 -113 -150 -193 -268 -193c-166 0 -293 129 -293 294c0 166 124 298 292 298c162 0 287 -128 287 -289zM474 325c-13 80 -69 127 -150 127s-138 -48 -157 -127
h307zM439 716l-53 -92l-226 125l57 102z" />
    <glyph glyph-name="iacute" unicode="&#xed;" horiz-adv-x="240" 
d="M186 0h-133v555h133v-555zM303 749l-226 -125l-53 92l222 135z" />
    <glyph glyph-name="icircumflex" unicode="&#xee;" horiz-adv-x="240" 
d="M186 0h-133v555h133v-555zM320 636h-145l-53 64l-56 -64h-145l148 138h105z" />
    <glyph glyph-name="idieresis" unicode="&#xef;" horiz-adv-x="240" 
d="M186 0h-133v555h133v-555zM292 636h-133v133h133v-133zM82 636h-134v133h134v-133z" />
    <glyph glyph-name="igrave" unicode="&#xec;" horiz-adv-x="240" 
d="M186 0h-133v555h133v-555zM214 716l-53 -92l-226 125l57 102z" />
    <glyph glyph-name="ntilde" unicode="&#xf1;" 
d="M547 0h-133v274c0 77 -13 178 -112 178c-35 0 -71 -20 -91 -49c-24 -35 -24 -98 -24 -139v-264h-133v555h123v-48c44 43 88 67 152 67c61 0 128 -30 167 -77c43 -52 51 -124 51 -189v-308zM497 683c-35 -28 -68 -47 -114 -47c-50 0 -95 27 -145 27c-30 0 -54 -7 -80 -20
l-54 81c33 25 74 43 116 43c51 0 97 -29 147 -29c28 0 53 8 76 23z" />
    <glyph glyph-name="oacute" unicode="&#xf3;" horiz-adv-x="640" 
d="M615 279c0 -168 -126 -297 -294 -297c-162 0 -296 133 -296 295c0 163 132 297 296 297s294 -132 294 -295zM482 276c0 89 -67 176 -161 176s-163 -85 -163 -175c0 -93 67 -173 163 -173c94 0 161 81 161 172zM478 749l-226 -125l-53 92l222 135z" />
    <glyph glyph-name="ocircumflex" unicode="&#xf4;" horiz-adv-x="640" 
d="M615 279c0 -168 -126 -297 -294 -297c-162 0 -296 133 -296 295c0 163 132 297 296 297s294 -132 294 -295zM482 276c0 89 -67 176 -161 176s-163 -85 -163 -175c0 -93 67 -173 163 -173c94 0 161 81 161 172zM520 636h-145l-53 64l-56 -64h-145l148 138h105z" />
    <glyph glyph-name="odieresis" unicode="&#xf6;" horiz-adv-x="640" 
d="M615 279c0 -168 -126 -297 -294 -297c-162 0 -296 133 -296 295c0 163 132 297 296 297s294 -132 294 -295zM482 276c0 89 -67 176 -161 176s-163 -85 -163 -175c0 -93 67 -173 163 -173c94 0 161 81 161 172zM492 636h-133v133h133v-133zM282 636h-134v133h134v-133z
" />
    <glyph glyph-name="ograve" unicode="&#xf2;" horiz-adv-x="640" 
d="M615 279c0 -168 -126 -297 -294 -297c-162 0 -296 133 -296 295c0 163 132 297 296 297s294 -132 294 -295zM482 276c0 89 -67 176 -161 176s-163 -85 -163 -175c0 -93 67 -173 163 -173c94 0 161 81 161 172zM439 716l-53 -92l-226 125l57 102z" />
    <glyph glyph-name="otilde" unicode="&#xf5;" horiz-adv-x="640" 
d="M615 279c0 -168 -126 -297 -294 -297c-162 0 -296 133 -296 295c0 163 132 297 296 297s294 -132 294 -295zM482 276c0 89 -67 176 -161 176s-163 -85 -163 -175c0 -93 67 -173 163 -173c94 0 161 81 161 172zM517 683c-35 -28 -68 -47 -114 -47c-50 0 -95 27 -145 27
c-30 0 -54 -7 -80 -20l-54 81c33 25 74 43 116 43c51 0 97 -29 147 -29c28 0 53 8 76 23z" />
    <glyph glyph-name="scaron" unicode="&#x161;" horiz-adv-x="440" 
d="M421 176c0 -110 -84 -194 -194 -194c-62 0 -127 24 -166 73c-29 37 -38 74 -42 120h136c9 -40 27 -71 73 -71c32 0 60 22 60 56c0 10 -2 20 -8 29c-18 25 -89 44 -117 54c-74 26 -124 77 -124 159c0 101 89 172 186 172s177 -73 181 -170h-130c-6 29 -23 48 -53 48
c-28 0 -51 -20 -51 -48c0 -29 23 -37 46 -46c16 -6 32 -11 48 -16c86 -27 155 -63 155 -166zM420 774l-146 -138h-105l-148 138h145l56 -64l53 64h145z" />
    <glyph glyph-name="uacute" unicode="&#xfa;" 
d="M544 0h-122v56h-2c-37 -51 -79 -74 -143 -74c-71 0 -145 28 -186 88c-38 55 -41 126 -41 191v294h133v-283c0 -80 16 -168 116 -168c92 0 112 93 112 167v284h133v-555zM493 749l-226 -125l-53 92l222 135z" />
    <glyph glyph-name="ucircumflex" unicode="&#xfb;" 
d="M544 0h-122v56h-2c-37 -51 -79 -74 -143 -74c-71 0 -145 28 -186 88c-38 55 -41 126 -41 191v294h133v-283c0 -80 16 -168 116 -168c92 0 112 93 112 167v284h133v-555zM500 636h-145l-53 64l-56 -64h-145l148 138h105z" />
    <glyph glyph-name="udieresis" unicode="&#xfc;" 
d="M544 0h-122v56h-2c-37 -51 -79 -74 -143 -74c-71 0 -145 28 -186 88c-38 55 -41 126 -41 191v294h133v-283c0 -80 16 -168 116 -168c92 0 112 93 112 167v284h133v-555zM472 636h-133v133h133v-133zM262 636h-134v133h134v-133z" />
    <glyph glyph-name="ugrave" unicode="&#xf9;" 
d="M544 0h-122v56h-2c-37 -51 -79 -74 -143 -74c-71 0 -145 28 -186 88c-38 55 -41 126 -41 191v294h133v-283c0 -80 16 -168 116 -168c92 0 112 93 112 167v284h133v-555zM384 716l-53 -92l-226 125l57 102z" />
    <glyph glyph-name="yacute" unicode="&#xfd;" horiz-adv-x="580" 
d="M571 555l-319 -740h-143l102 237l-203 503h152l126 -356l134 356h151zM483 749l-226 -125l-53 92l222 135z" />
    <glyph glyph-name="ydieresis" unicode="&#xff;" horiz-adv-x="580" 
d="M571 555l-319 -740h-143l102 237l-203 503h152l126 -356l134 356h151zM462 636h-133v133h133v-133zM252 636h-134v133h134v-133z" />
    <glyph glyph-name="zcaron" unicode="&#x17e;" horiz-adv-x="460" 
d="M442 0h-422v122l246 311h-218v122h377v-122l-246 -311h263v-122zM435 774l-146 -138h-105l-148 138h145l56 -64l53 64h145z" />
    <glyph glyph-name="oneeighth" unicode="&#x215b;" horiz-adv-x="758" 
d="M176 296h-96v358h-55v86h151v-444zM515 740l-307 -740h-98l306 740h99zM728 136c0 -83 -73 -145 -160 -145c-88 0 -162 61 -162 144c0 46 22 85 61 110c-24 20 -38 46 -38 80c0 73 64 128 139 128s137 -55 137 -128c0 -34 -15 -61 -39 -81c41 -25 62 -63 62 -108z
M635 137c0 38 -26 65 -68 65c-39 0 -67 -27 -67 -65c0 -32 26 -60 67 -60c43 0 68 30 68 60zM617 328c0 23 -16 43 -49 43s-51 -21 -51 -46c0 -26 19 -45 50 -45c33 0 50 21 50 48z" />
    <glyph glyph-name="threeeighths" unicode="&#x215c;" horiz-adv-x="892" 
d="M338 437c0 -90 -76 -150 -162 -150c-87 0 -154 61 -158 148h96c3 -36 29 -62 65 -62s63 27 63 63c0 62 -49 67 -99 67v86c29 0 66 -2 66 39c0 23 -11 35 -34 35c-21 0 -28 -18 -28 -36h-96c4 71 54 122 126 122c67 0 128 -53 128 -122c0 -30 -10 -56 -34 -76
c45 -20 67 -67 67 -114zM649 740l-307 -740h-98l306 740h99zM862 136c0 -83 -73 -145 -160 -145c-88 0 -162 61 -162 144c0 46 22 85 61 110c-24 20 -38 46 -38 80c0 73 64 128 139 128s137 -55 137 -128c0 -34 -15 -61 -39 -81c41 -25 62 -63 62 -108zM769 137
c0 38 -26 65 -68 65c-39 0 -67 -27 -67 -65c0 -32 26 -60 67 -60c43 0 68 30 68 60zM751 328c0 23 -16 43 -49 43s-51 -21 -51 -46c0 -26 19 -45 50 -45c33 0 50 21 50 48z" />
    <glyph glyph-name="fiveeighths" unicode="&#x215d;" horiz-adv-x="892" 
d="M341 450c0 -94 -67 -163 -162 -163c-85 0 -151 59 -163 147h93c8 -35 30 -61 69 -61c46 0 67 34 67 73c0 34 -20 69 -67 69c-29 0 -50 -12 -66 -32l-77 18l42 239h224v-86h-155l-12 -72c15 11 41 19 62 19c90 0 145 -66 145 -151zM649 740l-307 -740h-98l306 740h99z
M862 136c0 -83 -73 -145 -160 -145c-88 0 -162 61 -162 144c0 46 22 85 61 110c-24 20 -38 46 -38 80c0 73 64 128 139 128s137 -55 137 -128c0 -34 -15 -61 -39 -81c41 -25 62 -63 62 -108zM769 137c0 38 -26 65 -68 65c-39 0 -67 -27 -67 -65c0 -32 26 -60 67 -60
c43 0 68 30 68 60zM751 328c0 23 -16 43 -49 43s-51 -21 -51 -46c0 -26 19 -45 50 -45c33 0 50 21 50 48z" />
    <glyph glyph-name="seveneighths" unicode="&#x215e;" horiz-adv-x="777" 
d="M285 657l-158 -361h-103l160 357h-176v87h277v-83zM534 740l-307 -740h-98l306 740h99zM747 136c0 -83 -73 -145 -160 -145c-88 0 -162 61 -162 144c0 46 22 85 61 110c-24 20 -38 46 -38 80c0 73 64 128 139 128s137 -55 137 -128c0 -34 -15 -61 -39 -81
c41 -25 62 -63 62 -108zM654 137c0 38 -26 65 -68 65c-39 0 -67 -27 -67 -65c0 -32 26 -60 67 -60c43 0 68 30 68 60zM636 328c0 23 -16 43 -49 43s-51 -21 -51 -46c0 -26 19 -45 50 -45c33 0 50 21 50 48z" />
    <glyph glyph-name="onethird" unicode="&#x2153;" horiz-adv-x="746" 
d="M176 296h-96v358h-55v86h151v-444zM515 740l-307 -740h-98l306 740h99zM716 141c0 -90 -76 -150 -162 -150c-87 0 -154 61 -158 148h96c3 -36 29 -62 65 -62s63 27 63 63c0 62 -49 67 -99 67v86c29 0 66 -2 66 39c0 23 -11 35 -34 35c-21 0 -28 -18 -28 -36h-96
c4 71 54 122 126 122c67 0 128 -53 128 -122c0 -30 -10 -56 -34 -76c45 -20 67 -67 67 -114z" />
    <glyph glyph-name="twothirds" unicode="&#x2154;" horiz-adv-x="881" 
d="M329 296h-304v81l159 147c23 21 49 47 49 80c0 35 -24 59 -59 59c-47 0 -58 -42 -58 -80h-95c-1 6 -1 12 -1 18c0 85 71 148 154 148s155 -62 155 -147c0 -63 -42 -111 -87 -150l-80 -70h167v-86zM650 740l-307 -740h-98l306 740h99zM851 141c0 -90 -76 -150 -162 -150
c-87 0 -154 61 -158 148h96c3 -36 29 -62 65 -62s63 27 63 63c0 62 -49 67 -99 67v86c29 0 66 -2 66 39c0 23 -11 35 -34 35c-21 0 -28 -18 -28 -36h-96c4 71 54 122 126 122c67 0 128 -53 128 -122c0 -30 -10 -56 -34 -76c45 -20 67 -67 67 -114z" />
    <glyph glyph-name="uni00A0" unicode="&#xa0;" horiz-adv-x="280" 
 />
    <glyph glyph-name="uni00AD" unicode="&#xad;" horiz-adv-x="420" 
d="M349 230h-278v118h278v-118z" />
    <glyph glyph-name="two.superior" unicode="&#xb2;" horiz-adv-x="336" 
d="M322 421h-304v81l159 147c23 21 49 47 49 80c0 35 -24 59 -59 59c-47 0 -58 -42 -58 -80h-95c-1 6 -1 12 -1 18c0 85 71 148 154 148s155 -62 155 -147c0 -63 -42 -111 -87 -150l-80 -70h167v-86z" />
    <glyph glyph-name="three.superior" unicode="&#xb3;" horiz-adv-x="336" 
d="M328 562c0 -90 -76 -150 -162 -150c-87 0 -154 61 -158 148h96c3 -36 29 -62 65 -62s63 27 63 63c0 62 -49 67 -99 67v86c29 0 66 -2 66 39c0 23 -11 35 -34 35c-21 0 -28 -18 -28 -36h-96c4 71 54 122 126 122c67 0 128 -53 128 -122c0 -30 -10 -56 -34 -76
c45 -20 67 -67 67 -114z" />
    <glyph glyph-name="one.superior" unicode="&#xb9;" horiz-adv-x="248" 
d="M176 421h-96v358h-55v86h151v-444z" />
    <glyph glyph-name="Amacron" unicode="&#x100;" horiz-adv-x="740" 
d="M732 0h-151l-79 191h-265l-79 -191h-151l308 740h107zM453 320l-84 227h-2l-84 -227h170zM509 808h-277v111h277v-111z" />
    <glyph glyph-name="amacron" unicode="&#x101;" horiz-adv-x="660" 
d="M613 0h-122v69c-44 -52 -126 -87 -194 -87c-167 0 -270 141 -270 299c0 159 114 293 278 293c61 0 119 -25 164 -66c6 -6 15 -15 20 -23h2v70h122v-555zM487 279c0 95 -64 173 -162 173c-99 0 -165 -82 -165 -177c0 -93 70 -171 165 -171c99 0 162 80 162 175zM469 638
h-277v111h277v-111z" />
    <glyph glyph-name="Abreve" unicode="&#x102;" horiz-adv-x="740" 
d="M732 0h-151l-79 191h-265l-79 -191h-151l308 740h107zM453 320l-84 227h-2l-84 -227h170zM569 935c-15 -102 -106 -137 -199 -137c-92 0 -183 36 -198 137h108c20 -31 56 -40 90 -40c35 0 71 8 91 40h108z" />
    <glyph glyph-name="abreve" unicode="&#x103;" horiz-adv-x="660" 
d="M613 0h-122v69c-44 -52 -126 -87 -194 -87c-167 0 -270 141 -270 299c0 159 114 293 278 293c61 0 119 -25 164 -66c6 -6 15 -15 20 -23h2v70h122v-555zM487 279c0 95 -64 173 -162 173c-99 0 -165 -82 -165 -177c0 -93 70 -171 165 -171c99 0 162 80 162 175zM529 765
c-15 -102 -106 -137 -199 -137c-92 0 -183 36 -198 137h108c20 -31 56 -40 90 -40c35 0 71 8 91 40h108z" />
    <glyph glyph-name="Aogonek" unicode="&#x104;" horiz-adv-x="740" 
d="M732 0h-81c-26 -17 -64 -43 -64 -79c0 -29 24 -45 51 -45c14 0 27 5 40 11v-78c-24 -9 -42 -13 -68 -13c-60 0 -115 32 -115 97c0 52 44 86 86 107l-79 191h-265l-79 -191h-151l308 740h107zM453 320l-84 227h-2l-84 -227h170z" />
    <glyph glyph-name="aogonek" unicode="&#x105;" horiz-adv-x="660" 
d="M613 0h-52c-26 -17 -64 -43 -64 -79c0 -29 24 -45 51 -45c14 0 27 5 40 11v-78c-24 -9 -42 -13 -68 -13c-60 0 -115 32 -115 97c0 52 44 86 86 107v69c-44 -52 -126 -87 -194 -87c-167 0 -270 141 -270 299c0 159 114 293 278 293c61 0 119 -25 164 -66
c6 -6 15 -15 20 -23h2v70h122v-555zM487 279c0 95 -64 173 -162 173c-99 0 -165 -82 -165 -177c0 -93 70 -171 165 -171c99 0 162 80 162 175z" />
    <glyph glyph-name="Cacute" unicode="&#x106;" horiz-adv-x="780" 
d="M766 529h-156c-52 61 -116 98 -198 98c-136 0 -241 -125 -241 -256c0 -133 109 -258 246 -258c80 0 134 36 186 93h159c-57 -134 -198 -221 -342 -221c-212 0 -386 177 -386 388c0 209 174 382 383 382c151 0 288 -87 349 -226zM548 889l-226 -125l-53 92l222 135z" />
    <glyph glyph-name="cacute" unicode="&#x107;" horiz-adv-x="640" 
d="M610 181c-44 -122 -147 -199 -278 -199c-164 0 -295 135 -295 298c0 162 132 294 294 294c130 0 238 -80 279 -203h-150c-29 52 -67 81 -129 81c-99 0 -161 -79 -161 -174c0 -96 68 -174 167 -174c54 0 95 32 123 77h150zM478 719l-226 -125l-53 92l222 135z" />
    <glyph glyph-name="Ccircumflex" unicode="&#x108;" horiz-adv-x="780" 
d="M766 529h-156c-52 61 -116 98 -198 98c-136 0 -241 -125 -241 -256c0 -133 109 -258 246 -258c80 0 134 36 186 93h159c-57 -134 -198 -221 -342 -221c-212 0 -386 177 -386 388c0 209 174 382 383 382c151 0 288 -87 349 -226zM619 801h-145l-53 64l-56 -64h-145
l148 138h105z" />
    <glyph glyph-name="ccircumflex" unicode="&#x109;" horiz-adv-x="640" 
d="M610 181c-44 -122 -147 -199 -278 -199c-164 0 -295 135 -295 298c0 162 132 294 294 294c130 0 238 -80 279 -203h-150c-29 52 -67 81 -129 81c-99 0 -161 -79 -161 -174c0 -96 68 -174 167 -174c54 0 95 32 123 77h150zM520 631h-145l-53 64l-56 -64h-145l148 138h105z
" />
    <glyph glyph-name="Cdotaccent" unicode="&#x10a;" horiz-adv-x="780" 
d="M766 529h-156c-52 61 -116 98 -198 98c-136 0 -241 -125 -241 -256c0 -133 109 -258 246 -258c80 0 134 36 186 93h159c-57 -134 -198 -221 -342 -221c-212 0 -386 177 -386 388c0 209 174 382 383 382c151 0 288 -87 349 -226zM487 806h-133v133h133v-133z" />
    <glyph glyph-name="cdotaccent" unicode="&#x10b;" horiz-adv-x="640" 
d="M610 181c-44 -122 -147 -199 -278 -199c-164 0 -295 135 -295 298c0 162 132 294 294 294c130 0 238 -80 279 -203h-150c-29 52 -67 81 -129 81c-99 0 -161 -79 -161 -174c0 -96 68 -174 167 -174c54 0 95 32 123 77h150zM387 636h-133v133h133v-133z" />
    <glyph glyph-name="Ccaron" unicode="&#x10c;" horiz-adv-x="780" 
d="M766 529h-156c-52 61 -116 98 -198 98c-136 0 -241 -125 -241 -256c0 -133 109 -258 246 -258c80 0 134 36 186 93h159c-57 -134 -198 -221 -342 -221c-212 0 -386 177 -386 388c0 209 174 382 383 382c151 0 288 -87 349 -226zM618 940l-146 -136h-105l-147 136h144
l56 -63l53 63h145z" />
    <glyph glyph-name="ccaron" unicode="&#x10d;" horiz-adv-x="640" 
d="M610 181c-44 -122 -147 -199 -278 -199c-164 0 -295 135 -295 298c0 162 132 294 294 294c130 0 238 -80 279 -203h-150c-29 52 -67 81 -129 81c-99 0 -161 -79 -161 -174c0 -96 68 -174 167 -174c54 0 95 32 123 77h150zM520 761l-146 -138h-105l-148 138h145l56 -64
l53 64h145z" />
    <glyph glyph-name="Dcaron" unicode="&#x10e;" horiz-adv-x="700" 
d="M657 368c0 -126 -64 -258 -177 -320c-71 -39 -166 -48 -246 -48h-171v740h168c103 0 223 -15 304 -86c79 -70 122 -181 122 -286zM520 368c0 67 -28 137 -79 182c-69 61 -154 62 -241 62v-484h29c66 0 121 3 180 36c72 40 111 123 111 204zM500 941l-146 -138h-105
l-148 138h145l56 -64l53 64h145z" />
    <glyph glyph-name="dcaron" unicode="&#x10f;" horiz-adv-x="812" 
d="M618 0h-122v68h-2c-37 -59 -109 -86 -177 -86c-162 0 -283 137 -283 295c0 119 64 224 174 273c34 15 71 24 109 24c68 0 121 -18 168 -68v234h133v-740zM495 278c0 91 -70 174 -164 174c-90 0 -164 -82 -164 -170c0 -92 67 -178 164 -178c94 0 164 83 164 174zM811 652
c0 -72 -57 -119 -132 -119v57c43 7 58 24 58 58h-59v92h133v-88z" />
    <glyph glyph-name="Dcroat" unicode="&#x110;" horiz-adv-x="734" 
d="M691 368c0 -126 -64 -258 -177 -320c-71 -39 -166 -48 -246 -48h-171v311h-72v128h72v301h168c103 0 223 -15 304 -86c79 -70 122 -181 122 -286zM554 368c0 67 -28 137 -79 182c-69 61 -154 62 -241 62v-173h137v-128h-137v-183h29c66 0 121 3 180 36
c72 40 111 123 111 204z" />
    <glyph glyph-name="dcroat" unicode="&#x111;" horiz-adv-x="694" 
d="M618 0h-122v68h-2c-37 -59 -109 -86 -177 -86c-162 0 -283 137 -283 295c0 119 64 224 174 273c34 15 71 24 109 24c68 0 121 -18 168 -68v96h-211v107h211v31h133v-31h65v-107h-65v-602zM495 278c0 91 -70 174 -164 174c-90 0 -164 -82 -164 -170
c0 -92 67 -178 164 -178c94 0 164 83 164 174z" />
    <glyph glyph-name="Emacron" unicode="&#x112;" horiz-adv-x="520" 
d="M459 0h-398v740h398v-128h-261v-181h250v-128h-250v-175h261v-128zM399 808h-277v111h277v-111z" />
    <glyph glyph-name="emacron" unicode="&#x113;" horiz-adv-x="640" 
d="M610 285c0 -22 -3 -45 -8 -67h-431c3 -15 10 -28 18 -40c30 -46 80 -74 135 -74c54 0 101 22 128 71h140c-36 -113 -150 -193 -268 -193c-166 0 -293 129 -293 294c0 166 124 298 292 298c162 0 287 -128 287 -289zM474 325c-13 80 -69 127 -150 127s-138 -48 -157 -127
h307zM459 638h-277v111h277v-111z" />
    <glyph glyph-name="Ebreve" unicode="&#x114;" horiz-adv-x="520" 
d="M459 0h-398v740h398v-128h-261v-181h250v-128h-250v-175h261v-128zM459 935c-15 -102 -106 -137 -199 -137c-92 0 -183 36 -198 137h108c20 -31 56 -40 90 -40c35 0 71 8 91 40h108z" />
    <glyph glyph-name="ebreve" unicode="&#x115;" horiz-adv-x="640" 
d="M610 285c0 -22 -3 -45 -8 -67h-431c3 -15 10 -28 18 -40c30 -46 80 -74 135 -74c54 0 101 22 128 71h140c-36 -113 -150 -193 -268 -193c-166 0 -293 129 -293 294c0 166 124 298 292 298c162 0 287 -128 287 -289zM474 325c-13 80 -69 127 -150 127s-138 -48 -157 -127
h307zM519 765c-15 -102 -106 -137 -199 -137c-92 0 -183 36 -198 137h108c20 -31 56 -40 90 -40c35 0 71 8 91 40h108z" />
    <glyph glyph-name="Edotaccent" unicode="&#x116;" horiz-adv-x="520" 
d="M459 0h-398v740h398v-128h-261v-181h250v-128h-250v-175h261v-128zM327 806h-133v133h133v-133z" />
    <glyph glyph-name="edotaccent" unicode="&#x117;" horiz-adv-x="640" 
d="M610 285c0 -22 -3 -45 -8 -67h-431c3 -15 10 -28 18 -40c30 -46 80 -74 135 -74c54 0 101 22 128 71h140c-36 -113 -150 -193 -268 -193c-166 0 -293 129 -293 294c0 166 124 298 292 298c162 0 287 -128 287 -289zM474 325c-13 80 -69 127 -150 127s-138 -48 -157 -127
h307zM387 636h-133v133h133v-133z" />
    <glyph glyph-name="Eogonek" unicode="&#x118;" horiz-adv-x="520" 
d="M464 -191c-24 -9 -42 -13 -68 -13c-60 0 -115 32 -115 97c0 52 44 86 86 107h-306v740h398v-128h-261v-181h250v-128h-250v-175h261v-128h-22c-26 -17 -64 -43 -64 -79c0 -29 24 -45 51 -45c14 0 27 5 40 11v-78z" />
    <glyph glyph-name="eogonek" unicode="&#x119;" horiz-adv-x="640" 
d="M448 -191c-24 -9 -42 -13 -68 -13c-60 0 -115 32 -115 97c0 39 25 68 58 89c-167 2 -292 130 -292 294c0 166 124 298 292 298c162 0 287 -128 287 -289c0 -22 -3 -45 -8 -67h-431c3 -15 10 -28 18 -40c30 -46 80 -74 135 -74c54 0 101 22 128 71h140
c-36 -99 -95 -140 -169 -178c-28 -15 -66 -39 -66 -76c0 -29 24 -45 51 -45c14 0 27 5 40 11v-78zM474 325c-13 80 -69 127 -150 127s-138 -48 -157 -127h307z" />
    <glyph glyph-name="Ecaron" unicode="&#x11a;" horiz-adv-x="520" 
d="M459 0h-398v740h398v-128h-261v-181h250v-128h-250v-175h261v-128zM460 941l-146 -138h-105l-148 138h145l56 -64l53 64h145z" />
    <glyph glyph-name="ecaron" unicode="&#x11b;" horiz-adv-x="640" 
d="M610 285c0 -22 -3 -45 -8 -67h-431c3 -15 10 -28 18 -40c30 -46 80 -74 135 -74c54 0 101 22 128 71h140c-36 -113 -150 -193 -268 -193c-166 0 -293 129 -293 294c0 166 124 298 292 298c162 0 287 -128 287 -289zM474 325c-13 80 -69 127 -150 127s-138 -48 -157 -127
h307zM520 761l-146 -138h-105l-148 138h145l56 -64l53 64h145z" />
    <glyph glyph-name="Gcircumflex" unicode="&#x11c;" horiz-adv-x="840" 
d="M817 361c0 -211 -185 -376 -392 -376c-215 0 -398 166 -398 385c0 215 182 385 394 385c146 0 308 -90 359 -232h-164c-43 66 -120 104 -198 104c-143 0 -254 -116 -254 -258c0 -34 8 -69 21 -100c42 -100 132 -156 240 -156c94 0 177 52 219 136h-310v128h483v-16z
M620 801h-145l-53 64l-56 -64h-145l148 138h105z" />
    <glyph glyph-name="gcircumflex" unicode="&#x11d;" horiz-adv-x="660" 
d="M623 102c0 -133 -51 -249 -178 -302c-39 -17 -83 -26 -125 -26c-123 0 -234 68 -279 184h152c37 -43 81 -62 137 -62c99 0 165 77 170 173l-2 2c-43 -61 -108 -89 -182 -89c-38 0 -76 9 -110 25c-110 50 -174 157 -174 276c0 156 124 291 283 291c71 0 137 -27 177 -87h2
v68h129v-453zM490 283c0 89 -73 169 -163 169c-94 0 -162 -79 -162 -170c0 -95 68 -178 166 -178c97 0 159 88 159 179zM530 631h-145l-53 64l-56 -64h-145l148 138h105z" />
    <glyph glyph-name="Gbreve" unicode="&#x11e;" horiz-adv-x="840" 
d="M817 361c0 -211 -185 -376 -392 -376c-215 0 -398 166 -398 385c0 215 182 385 394 385c146 0 308 -90 359 -232h-164c-43 66 -120 104 -198 104c-143 0 -254 -116 -254 -258c0 -34 8 -69 21 -100c42 -100 132 -156 240 -156c94 0 177 52 219 136h-310v128h483v-16z
M619 935c-15 -102 -106 -137 -199 -137c-92 0 -183 36 -198 137h108c20 -31 56 -40 90 -40c35 0 71 8 91 40h108z" />
    <glyph glyph-name="gbreve" unicode="&#x11f;" horiz-adv-x="660" 
d="M623 102c0 -133 -51 -249 -178 -302c-39 -17 -83 -26 -125 -26c-123 0 -234 68 -279 184h152c37 -43 81 -62 137 -62c99 0 165 77 170 173l-2 2c-43 -61 -108 -89 -182 -89c-38 0 -76 9 -110 25c-110 50 -174 157 -174 276c0 156 124 291 283 291c71 0 137 -27 177 -87h2
v68h129v-453zM490 283c0 89 -73 169 -163 169c-94 0 -162 -79 -162 -170c0 -95 68 -178 166 -178c97 0 159 88 159 179zM529 765c-15 -102 -106 -137 -199 -137c-92 0 -183 36 -198 137h108c20 -31 56 -40 90 -40c35 0 71 8 91 40h108z" />
    <glyph glyph-name="Gdotaccent" unicode="&#x120;" horiz-adv-x="840" 
d="M817 361c0 -211 -185 -376 -392 -376c-215 0 -398 166 -398 385c0 215 182 385 394 385c146 0 308 -90 359 -232h-164c-43 66 -120 104 -198 104c-143 0 -254 -116 -254 -258c0 -34 8 -69 21 -100c42 -100 132 -156 240 -156c94 0 177 52 219 136h-310v128h483v-16z
M487 806h-133v133h133v-133z" />
    <glyph glyph-name="gdotaccent" unicode="&#x121;" horiz-adv-x="660" 
d="M623 102c0 -133 -51 -249 -178 -302c-39 -17 -83 -26 -125 -26c-123 0 -234 68 -279 184h152c37 -43 81 -62 137 -62c99 0 165 77 170 173l-2 2c-43 -61 -108 -89 -182 -89c-38 0 -76 9 -110 25c-110 50 -174 157 -174 276c0 156 124 291 283 291c71 0 137 -27 177 -87h2
v68h129v-453zM490 283c0 89 -73 169 -163 169c-94 0 -162 -79 -162 -170c0 -95 68 -178 166 -178c97 0 159 88 159 179zM397 636h-133v133h133v-133z" />
    <glyph glyph-name="Gcommaaccent" unicode="&#x122;" horiz-adv-x="840" 
d="M817 361c0 -211 -185 -376 -392 -376c-215 0 -398 166 -398 385c0 215 182 385 394 385c146 0 308 -90 359 -232h-164c-43 66 -120 104 -198 104c-143 0 -254 -116 -254 -258c0 -34 8 -69 21 -100c42 -100 132 -156 240 -156c94 0 177 52 219 136h-310v128h483v-16z
M486 -140c0 -72 -57 -119 -132 -119v57c43 7 58 24 58 58h-59v92h133v-88z" />
    <glyph glyph-name="gcommaaccent" unicode="&#x123;" horiz-adv-x="660" 
d="M623 102c0 -133 -51 -249 -178 -302c-39 -17 -83 -26 -125 -26c-123 0 -234 68 -279 184h152c37 -43 81 -62 137 -62c99 0 165 77 170 173l-2 2c-43 -61 -108 -89 -182 -89c-38 0 -76 9 -110 25c-110 50 -174 157 -174 276c0 156 124 291 283 291c71 0 137 -27 177 -87h2
v68h129v-453zM490 283c0 89 -73 169 -163 169c-94 0 -162 -79 -162 -170c0 -95 68 -178 166 -178c97 0 159 88 159 179zM264 724c0 72 57 119 132 119v-67c-43 -7 -58 -24 -58 -58h59v-92h-133v98z" />
    <glyph glyph-name="Hcircumflex" unicode="&#x124;" horiz-adv-x="680" 
d="M610 0h-137v311h-265v-311h-137v740h137v-301h265v301h137v-740zM540 801h-145l-53 64l-56 -64h-145l148 138h105z" />
    <glyph glyph-name="hcircumflex" unicode="&#x125;" 
d="M546 0h-133v284c0 80 -13 168 -114 168c-99 0 -112 -93 -112 -170v-282h-133v740h133v-224c41 39 87 58 144 58c63 0 133 -35 171 -85c36 -47 44 -109 44 -167v-322zM360 801h-145l-53 64l-56 -64h-145l148 138h105z" />
    <glyph glyph-name="Hbar" unicode="&#x126;" horiz-adv-x="680" 
d="M610 0h-137v311h-265v-311h-137v524h-60v118h60v98h137v-98h265v98h137v-98h60v-118h-60v-524zM208 439h265v85h-265v-85z" />
    <glyph glyph-name="hbar" unicode="&#x127;" 
d="M546 0h-133v284c0 80 -13 168 -114 168c-99 0 -112 -93 -112 -170v-282h-133v602h-65v107h65v31h133v-31h211v-107h-211v-86c41 39 87 58 144 58c63 0 133 -35 171 -85c36 -47 44 -109 44 -167v-322z" />
    <glyph glyph-name="Itilde" unicode="&#x128;" horiz-adv-x="280" 
d="M209 0h-137v740h137v-740zM337 853c-35 -28 -68 -47 -114 -47c-50 0 -95 27 -145 27c-30 0 -54 -7 -80 -20l-54 81c33 25 74 43 116 43c51 0 97 -29 147 -29c28 0 53 8 76 23z" />
    <glyph glyph-name="itilde" unicode="&#x129;" horiz-adv-x="240" 
d="M186 0h-133v555h133v-555zM317 683c-35 -28 -68 -47 -114 -47c-50 0 -95 27 -145 27c-30 0 -54 -7 -80 -20l-54 81c33 25 74 43 116 43c51 0 97 -29 147 -29c28 0 53 8 76 23z" />
    <glyph glyph-name="Imacron" unicode="&#x12a;" horiz-adv-x="280" 
d="M209 0h-137v740h137v-740zM279 808h-277v111h277v-111z" />
    <glyph glyph-name="imacron" unicode="&#x12b;" horiz-adv-x="240" 
d="M186 0h-133v555h133v-555zM259 638h-277v111h277v-111z" />
    <glyph glyph-name="Ibreve" unicode="&#x12c;" horiz-adv-x="280" 
d="M209 0h-137v740h137v-740zM339 935c-15 -102 -106 -137 -199 -137c-92 0 -183 36 -198 137h108c20 -31 56 -40 90 -40c35 0 71 8 91 40h108z" />
    <glyph glyph-name="ibreve" unicode="&#x12d;" horiz-adv-x="240" 
d="M186 0h-133v555h133v-555zM319 765c-15 -102 -106 -137 -199 -137c-92 0 -183 36 -198 137h108c20 -31 56 -40 90 -40c35 0 71 8 91 40h108z" />
    <glyph glyph-name="Iogonek" unicode="&#x12e;" horiz-adv-x="280" 
d="M168 -204c-60 0 -115 32 -115 97c0 52 44 86 86 107h-67v740h137v-740c-26 -17 -64 -43 -64 -79c0 -29 24 -45 51 -45c14 0 27 5 40 11v-78c-24 -9 -42 -13 -68 -13z" />
    <glyph glyph-name="iogonek" unicode="&#x12f;" horiz-adv-x="240" 
d="M157 -195c-60 0 -115 32 -115 97c0 45 33 77 69 98h-58v555h133v-555c-24 -17 -52 -38 -52 -70c0 -29 24 -45 51 -45c14 0 27 5 40 11v-78c-24 -9 -42 -13 -68 -13zM186 618h-133v122h133v-122z" />
    <glyph glyph-name="Idotaccent" unicode="&#x130;" horiz-adv-x="280" 
d="M209 0h-137v740h137v-740zM207 806h-133v133h133v-133z" />
    <glyph glyph-name="IJ" unicode="&#x132;" horiz-adv-x="760" 
d="M209 0h-137v740h137v-740zM689 210c0 -90 -32 -172 -119 -208c-26 -11 -55 -17 -83 -17c-117 0 -187 78 -205 189h138c8 -35 27 -61 65 -61c51 0 67 44 67 88v539h137v-530z" />
    <glyph glyph-name="ij" unicode="&#x133;" horiz-adv-x="500" 
d="M186 618h-133v122h133v-122zM186 0h-133v555h133v-555zM445 618h-133v122h133v-122zM445 24c0 -116 -67 -208 -189 -209v130c55 5 56 31 56 82v528h133v-531z" />
    <glyph glyph-name="Jcircumflex" unicode="&#x134;" horiz-adv-x="480" 
d="M409 210c0 -90 -32 -172 -119 -208c-26 -11 -55 -17 -83 -17c-117 0 -187 78 -205 189h138c8 -35 27 -61 65 -61c51 0 67 44 67 88v539h137v-530zM537 801h-145l-53 64l-56 -64h-145l148 138h105z" />
    <glyph glyph-name="jcircumflex" unicode="&#x135;" horiz-adv-x="260" 
d="M205 24c0 -116 -67 -208 -189 -209v130c55 5 56 31 56 82v528h133v-531zM333 631h-145l-53 64l-56 -64h-145l148 138h105z" />
    <glyph glyph-name="Kcommaaccent" unicode="&#x136;" horiz-adv-x="620" 
d="M620 0h-161l-231 325h-2v-325h-137v740h137v-320h2l231 320h161l-279 -364zM401 -140c0 -72 -57 -119 -132 -119v57c43 7 58 24 58 58h-59v92h133v-88z" />
    <glyph glyph-name="kcommaaccent" unicode="&#x137;" horiz-adv-x="580" 
d="M571 0h-168l-188 260h-2v-260h-133v740h133v-446h2l177 261h153l-200 -272zM373 -140c0 -72 -57 -119 -132 -119v57c43 7 58 24 58 58h-59v92h133v-88z" />
    <glyph glyph-name="kgreenlandic" unicode="&#x138;" horiz-adv-x="580" 
d="M571 0h-168l-188 230h-2v-230h-133v555h133v-224h2l188 224h166l-246 -269z" />
    <glyph glyph-name="Lacute" unicode="&#x139;" horiz-adv-x="440" 
d="M435 0h-363v740h137v-612h226v-128zM299 889l-226 -125l-53 92l222 135z" />
    <glyph glyph-name="lacute" unicode="&#x13a;" horiz-adv-x="240" 
d="M187 0h-133v740h133v-740zM278 900l-226 -125l-53 92l222 135z" />
    <glyph glyph-name="Lcommaaccent" unicode="&#x13b;" horiz-adv-x="440" 
d="M435 0h-363v740h137v-612h226v-128zM314 -140c0 -72 -57 -119 -132 -119v57c43 7 58 24 58 58h-59v92h133v-88z" />
    <glyph glyph-name="lcommaaccent" unicode="&#x13c;" horiz-adv-x="240" 
d="M187 0h-133v740h133v-740zM186 -140c0 -72 -57 -119 -132 -119v57c43 7 58 24 58 58h-59v92h133v-88z" />
    <glyph glyph-name="Lcaron" unicode="&#x13d;" horiz-adv-x="440" 
d="M435 0h-363v740h137v-612h226v-128zM416 652c0 -72 -57 -119 -132 -119v57c43 7 58 24 58 58h-59v92h133v-88z" />
    <glyph glyph-name="lcaron" unicode="&#x13e;" horiz-adv-x="372" 
d="M187 0h-133v740h133v-740zM372 652c0 -72 -57 -119 -132 -119v57c43 7 58 24 58 58h-59v92h133v-88z" />
    <glyph glyph-name="Ldot" unicode="&#x13f;" horiz-adv-x="460" 
d="M435 0h-363v740h137v-612h226v-128zM428 350h-133v133h133v-133z" />
    <glyph glyph-name="ldot" unicode="&#x140;" horiz-adv-x="398" 
d="M187 0h-133v740h133v-740zM383 320h-133v133h133v-133z" />
    <glyph glyph-name="Nacute" unicode="&#x143;" horiz-adv-x="740" 
d="M671 0h-153l-309 538h-2v-538h-137v740h156l306 -538h2v538h137v-740zM528 889l-226 -125l-53 92l222 135z" />
    <glyph glyph-name="nacute" unicode="&#x144;" 
d="M547 0h-133v274c0 77 -13 178 -112 178c-35 0 -71 -20 -91 -49c-24 -35 -24 -98 -24 -139v-264h-133v555h123v-48c44 43 88 67 152 67c61 0 128 -30 167 -77c43 -52 51 -124 51 -189v-308zM458 719l-226 -125l-53 92l222 135z" />
    <glyph glyph-name="Ncommaaccent" unicode="&#x145;" horiz-adv-x="740" 
d="M671 0h-153l-309 538h-2v-538h-137v740h156l306 -538h2v538h137v-740zM436 -140c0 -72 -57 -119 -132 -119v57c43 7 58 24 58 58h-59v92h133v-88z" />
    <glyph glyph-name="ncommaaccent" unicode="&#x146;" 
d="M547 0h-133v274c0 77 -13 178 -112 178c-35 0 -71 -20 -91 -49c-24 -35 -24 -98 -24 -139v-264h-133v555h123v-48c44 43 88 67 152 67c61 0 128 -30 167 -77c43 -52 51 -124 51 -189v-308zM366 -140c0 -72 -57 -119 -132 -119v57c43 7 58 24 58 58h-59v92h133v-88z" />
    <glyph glyph-name="Ncaron" unicode="&#x147;" horiz-adv-x="740" 
d="M671 0h-153l-309 538h-2v-538h-137v740h156l306 -538h2v538h137v-740zM570 941l-146 -138h-105l-148 138h145l56 -64l53 64h145z" />
    <glyph glyph-name="ncaron" unicode="&#x148;" 
d="M547 0h-133v274c0 77 -13 178 -112 178c-35 0 -71 -20 -91 -49c-24 -35 -24 -98 -24 -139v-264h-133v555h123v-48c44 43 88 67 152 67c61 0 128 -30 167 -77c43 -52 51 -124 51 -189v-308zM488 761l-146 -138h-105l-148 138h145l56 -64l53 64h145z" />
    <glyph glyph-name="napostrophe" unicode="&#x149;" horiz-adv-x="700" 
d="M647 0h-133v274c0 77 -13 178 -112 178c-35 0 -71 -20 -91 -49c-24 -35 -24 -98 -24 -139v-264h-133v555h123v-48c44 43 88 67 152 67c61 0 128 -30 167 -77c43 -52 51 -124 51 -189v-308zM112 599c0 -82 -51 -133 -132 -133v67c49 10 58 25 58 74h-59v133h133v-141z" />
    <glyph glyph-name="Eng" unicode="&#x14a;" horiz-adv-x="740" 
d="M671 740v-716c0 -126 -75 -209 -193 -209v134c42 4 52 19 55 51l-324 538h-2v-538h-137v740h156l306 -513h2v513h137z" />
    <glyph glyph-name="eng" unicode="&#x14b;" 
d="M547 24c0 -116 -67 -208 -189 -209v130c55 5 56 31 56 82v247c0 77 -13 178 -112 178c-35 0 -71 -20 -91 -49c-24 -35 -24 -98 -24 -139v-264h-133v555h123v-48c44 43 88 67 152 67c61 0 128 -30 167 -77c43 -52 51 -124 51 -189v-284z" />
    <glyph glyph-name="Omacron" unicode="&#x14c;" horiz-adv-x="840" 
d="M807 368c0 -213 -175 -383 -387 -383s-387 170 -387 383c0 215 173 387 387 387s387 -172 387 -387zM670 369c0 139 -108 258 -250 258s-250 -119 -250 -258c0 -138 110 -256 250 -256s250 118 250 256zM559 808h-277v111h277v-111z" />
    <glyph glyph-name="omacron" unicode="&#x14d;" horiz-adv-x="640" 
d="M615 279c0 -168 -126 -297 -294 -297c-162 0 -296 133 -296 295c0 163 132 297 296 297s294 -132 294 -295zM482 276c0 89 -67 176 -161 176s-163 -85 -163 -175c0 -93 67 -173 163 -173c94 0 161 81 161 172zM459 638h-277v111h277v-111z" />
    <glyph glyph-name="Obreve" unicode="&#x14e;" horiz-adv-x="840" 
d="M807 368c0 -213 -175 -383 -387 -383s-387 170 -387 383c0 215 173 387 387 387s387 -172 387 -387zM670 369c0 139 -108 258 -250 258s-250 -119 -250 -258c0 -138 110 -256 250 -256s250 118 250 256zM619 935c-15 -102 -106 -137 -199 -137c-92 0 -183 36 -198 137
h108c20 -31 56 -40 90 -40c35 0 71 8 91 40h108z" />
    <glyph glyph-name="obreve" unicode="&#x14f;" horiz-adv-x="640" 
d="M615 279c0 -168 -126 -297 -294 -297c-162 0 -296 133 -296 295c0 163 132 297 296 297s294 -132 294 -295zM482 276c0 89 -67 176 -161 176s-163 -85 -163 -175c0 -93 67 -173 163 -173c94 0 161 81 161 172zM519 765c-15 -102 -106 -137 -199 -137
c-92 0 -183 36 -198 137h108c20 -31 56 -40 90 -40c35 0 71 8 91 40h108z" />
    <glyph glyph-name="Ohungarumlaut" unicode="&#x150;" horiz-adv-x="840" 
d="M807 368c0 -213 -175 -383 -387 -383s-387 170 -387 383c0 215 173 387 387 387s387 -172 387 -387zM670 369c0 139 -108 258 -250 258s-250 -119 -250 -258c0 -138 110 -256 250 -256s250 118 250 256zM696 930l-207 -150l-57 76l197 163zM454 930l-207 -150l-57 76
l197 163z" />
    <glyph glyph-name="ohungarumlaut" unicode="&#x151;" horiz-adv-x="640" 
d="M615 279c0 -168 -126 -297 -294 -297c-162 0 -296 133 -296 295c0 163 132 297 296 297s294 -132 294 -295zM482 276c0 89 -67 176 -161 176s-163 -85 -163 -175c0 -93 67 -173 163 -173c94 0 161 81 161 172zM596 760l-207 -150l-57 76l197 163zM354 760l-207 -150
l-57 76l197 163z" />
    <glyph glyph-name="Racute" unicode="&#x154;" horiz-adv-x="580" 
d="M565 0h-166l-196 283h-2v-283h-137v740h227c65 0 128 -8 180 -50c55 -44 87 -109 87 -179c0 -63 -26 -133 -71 -177c-38 -36 -73 -49 -123 -61zM421 500c0 76 -62 112 -132 112h-88v-226h88c73 0 132 36 132 114zM448 889l-226 -125l-53 92l222 135z" />
    <glyph glyph-name="racute" unicode="&#x155;" horiz-adv-x="320" 
d="M317 445c-87 -3 -121 -52 -121 -133v-312h-133v555h122v-49h2c37 54 64 68 130 68v-129zM318 719l-226 -125l-53 92l222 135z" />
    <glyph glyph-name="Rcommaaccent" unicode="&#x156;" horiz-adv-x="580" 
d="M565 0h-166l-196 283h-2v-283h-137v740h227c65 0 128 -8 180 -50c55 -44 87 -109 87 -179c0 -63 -26 -133 -71 -177c-38 -36 -73 -49 -123 -61zM421 500c0 76 -62 112 -132 112h-88v-226h88c73 0 132 36 132 114zM361 -140c0 -72 -57 -119 -132 -119v57c43 7 58 24 58 58
h-59v92h133v-88z" />
    <glyph glyph-name="rcommaaccent" unicode="&#x157;" horiz-adv-x="320" 
d="M317 445c-87 -3 -121 -52 -121 -133v-312h-133v555h122v-49h2c37 54 64 68 130 68v-129zM196 -140c0 -72 -57 -119 -132 -119v57c43 7 58 24 58 58h-59v92h133v-88z" />
    <glyph glyph-name="Rcaron" unicode="&#x158;" horiz-adv-x="580" 
d="M565 0h-166l-196 283h-2v-283h-137v740h227c65 0 128 -8 180 -50c55 -44 87 -109 87 -179c0 -63 -26 -133 -71 -177c-38 -36 -73 -49 -123 -61zM421 500c0 76 -62 112 -132 112h-88v-226h88c73 0 132 36 132 114zM470 941l-146 -138h-105l-148 138h145l56 -64l53 64h145z
" />
    <glyph glyph-name="rcaron" unicode="&#x159;" horiz-adv-x="320" 
d="M317 445c-87 -3 -121 -52 -121 -133v-312h-133v555h122v-49h2c37 54 64 68 130 68v-129zM360 761l-146 -138h-105l-148 138h145l56 -64l53 64h145z" />
    <glyph glyph-name="Sacute" unicode="&#x15a;" horiz-adv-x="520" 
d="M493 221c0 -140 -102 -236 -240 -236c-131 0 -235 96 -241 227h144c5 -56 39 -99 98 -99c53 0 102 37 102 93c0 84 -76 100 -141 125c-23 9 -45 17 -67 28c-75 39 -109 100 -109 185c0 122 96 211 217 211c120 0 213 -91 219 -211h-140c-4 50 -31 83 -83 83
c-43 0 -76 -31 -76 -75c0 -71 68 -85 123 -103c112 -37 194 -98 194 -228zM418 889l-226 -125l-53 92l222 135z" />
    <glyph glyph-name="sacute" unicode="&#x15b;" horiz-adv-x="440" 
d="M421 176c0 -110 -84 -194 -194 -194c-62 0 -127 24 -166 73c-29 37 -38 74 -42 120h136c9 -40 27 -71 73 -71c32 0 60 22 60 56c0 10 -2 20 -8 29c-18 25 -89 44 -117 54c-74 26 -124 77 -124 159c0 101 89 172 186 172s177 -73 181 -170h-130c-6 29 -23 48 -53 48
c-28 0 -51 -20 -51 -48c0 -29 23 -37 46 -46c16 -6 32 -11 48 -16c86 -27 155 -63 155 -166zM378 719l-226 -125l-53 92l222 135z" />
    <glyph glyph-name="Scircumflex" unicode="&#x15c;" horiz-adv-x="520" 
d="M493 221c0 -140 -102 -236 -240 -236c-131 0 -235 96 -241 227h144c5 -56 39 -99 98 -99c53 0 102 37 102 93c0 84 -76 100 -141 125c-23 9 -45 17 -67 28c-75 39 -109 100 -109 185c0 122 96 211 217 211c120 0 213 -91 219 -211h-140c-4 50 -31 83 -83 83
c-43 0 -76 -31 -76 -75c0 -71 68 -85 123 -103c112 -37 194 -98 194 -228zM460 801h-145l-53 64l-56 -64h-145l148 138h105z" />
    <glyph glyph-name="scircumflex" unicode="&#x15d;" horiz-adv-x="440" 
d="M421 176c0 -110 -84 -194 -194 -194c-62 0 -127 24 -166 73c-29 37 -38 74 -42 120h136c9 -40 27 -71 73 -71c32 0 60 22 60 56c0 10 -2 20 -8 29c-18 25 -89 44 -117 54c-74 26 -124 77 -124 159c0 101 89 172 186 172s177 -73 181 -170h-130c-6 29 -23 48 -53 48
c-28 0 -51 -20 -51 -48c0 -29 23 -37 46 -46c16 -6 32 -11 48 -16c86 -27 155 -63 155 -166zM420 631h-145l-53 64l-56 -64h-145l148 138h105z" />
    <glyph glyph-name="Scedilla" unicode="&#x15e;" horiz-adv-x="520" 
d="M256 -251c-46 0 -100 37 -100 87h53c4 -23 24 -37 47 -37c28 0 46 21 46 48c0 26 -20 50 -47 50c-18 0 -34 -6 -43 -22l-49 19l42 96c-108 20 -188 107 -193 222h144c5 -56 39 -99 98 -99c53 0 102 37 102 93c0 84 -76 100 -141 125c-23 9 -45 17 -67 28
c-75 39 -109 100 -109 185c0 122 96 211 217 211c120 0 213 -91 219 -211h-140c-4 50 -31 83 -83 83c-43 0 -76 -31 -76 -75c0 -71 68 -85 123 -103c112 -37 194 -98 194 -228c0 -139 -101 -234 -237 -236l-18 -40c8 1 17 2 25 2c57 0 93 -45 93 -100
c0 -60 -41 -98 -100 -98z" />
    <glyph glyph-name="scedilla" unicode="&#x15f;" horiz-adv-x="440" 
d="M231 -251c-46 0 -100 37 -100 87h53c4 -23 24 -37 47 -37c28 0 46 21 46 48c0 26 -20 50 -47 50c-18 0 -34 -6 -43 -22l-49 19l40 93c-45 10 -88 31 -117 68s-38 74 -42 120h136c9 -40 27 -71 73 -71c32 0 60 22 60 56c0 10 -2 20 -8 29c-18 25 -89 44 -117 54
c-74 26 -124 77 -124 159c0 101 89 172 186 172s177 -73 181 -170h-130c-6 29 -23 48 -53 48c-28 0 -51 -20 -51 -48c0 -29 23 -37 46 -46c16 -6 32 -11 48 -16c86 -27 155 -63 155 -166c0 -109 -83 -192 -192 -194l-16 -37c8 1 17 2 25 2c57 0 93 -45 93 -100
c0 -60 -41 -98 -100 -98z" />
    <glyph glyph-name="Tcedilla" unicode="&#x162;" horiz-adv-x="420" 
d="M418 612h-138v-612h-137v612h-137v128h412v-128zM276 -140c0 -72 -57 -119 -132 -119v57c43 7 58 24 58 58h-59v92h133v-88z" />
    <glyph glyph-name="tcedilla" unicode="&#x163;" horiz-adv-x="300" 
d="M299 437h-80v-437h-133v437h-65v118h65v185h133v-185h80v-118zM216 -140c0 -72 -57 -119 -132 -119v57c43 7 58 24 58 58h-59v92h133v-88z" />
    <glyph glyph-name="Tcaron" unicode="&#x164;" horiz-adv-x="420" 
d="M418 612h-138v-612h-137v612h-137v128h412v-128zM410 941l-146 -138h-105l-148 138h145l56 -64l53 64h145z" />
    <glyph glyph-name="tcaron" unicode="&#x165;" horiz-adv-x="396" 
d="M299 437h-80v-437h-133v437h-65v118h65v185h133v-185h80v-118zM405 727c0 -72 -57 -119 -132 -119v57c43 7 58 24 58 58h-59v92h133v-88z" />
    <glyph glyph-name="Tbar" unicode="&#x166;" horiz-adv-x="420" 
d="M378 311h-98v-311h-137v311h-97v128h97v173h-137v128h412v-128h-138v-173h98v-128z" />
    <glyph glyph-name="tbar" unicode="&#x167;" horiz-adv-x="300" 
d="M289 240h-70v-240h-133v240h-55v118h55v79h-65v118h65v185h133v-185h80v-118h-80v-79h70v-118z" />
    <glyph glyph-name="Utilde" unicode="&#x168;" horiz-adv-x="640" 
d="M585 270c0 -60 -8 -124 -43 -175c-50 -71 -136 -110 -221 -110c-83 0 -170 38 -220 106c-37 49 -46 119 -46 179v470h137v-470c0 -86 28 -157 128 -157s128 71 128 157v470h137v-470zM517 853c-35 -28 -68 -47 -114 -47c-50 0 -95 27 -145 27c-30 0 -54 -7 -80 -20
l-54 81c33 25 74 43 116 43c51 0 97 -29 147 -29c28 0 53 8 76 23z" />
    <glyph glyph-name="utilde" unicode="&#x169;" 
d="M544 0h-122v56h-2c-37 -51 -79 -74 -143 -74c-71 0 -145 28 -186 88c-38 55 -41 126 -41 191v294h133v-283c0 -80 16 -168 116 -168c92 0 112 93 112 167v284h133v-555zM497 683c-35 -28 -68 -47 -114 -47c-50 0 -95 27 -145 27c-30 0 -54 -7 -80 -20l-54 81
c33 25 74 43 116 43c51 0 97 -29 147 -29c28 0 53 8 76 23z" />
    <glyph glyph-name="Umacron" unicode="&#x16a;" horiz-adv-x="640" 
d="M585 270c0 -60 -8 -124 -43 -175c-50 -71 -136 -110 -221 -110c-83 0 -170 38 -220 106c-37 49 -46 119 -46 179v470h137v-470c0 -86 28 -157 128 -157s128 71 128 157v470h137v-470zM459 808h-277v111h277v-111z" />
    <glyph glyph-name="umacron" unicode="&#x16b;" 
d="M544 0h-122v56h-2c-37 -51 -79 -74 -143 -74c-71 0 -145 28 -186 88c-38 55 -41 126 -41 191v294h133v-283c0 -80 16 -168 116 -168c92 0 112 93 112 167v284h133v-555zM439 638h-277v111h277v-111z" />
    <glyph glyph-name="Ubreve" unicode="&#x16c;" horiz-adv-x="640" 
d="M585 270c0 -60 -8 -124 -43 -175c-50 -71 -136 -110 -221 -110c-83 0 -170 38 -220 106c-37 49 -46 119 -46 179v470h137v-470c0 -86 28 -157 128 -157s128 71 128 157v470h137v-470zM519 935c-15 -102 -106 -137 -199 -137c-92 0 -183 36 -198 137h108
c20 -31 56 -40 90 -40c35 0 71 8 91 40h108z" />
    <glyph glyph-name="ubreve" unicode="&#x16d;" 
d="M544 0h-122v56h-2c-37 -51 -79 -74 -143 -74c-71 0 -145 28 -186 88c-38 55 -41 126 -41 191v294h133v-283c0 -80 16 -168 116 -168c92 0 112 93 112 167v284h133v-555zM499 765c-15 -102 -106 -137 -199 -137c-92 0 -183 36 -198 137h108c20 -31 56 -40 90 -40
c35 0 71 8 91 40h108z" />
    <glyph glyph-name="Uring" unicode="&#x16e;" horiz-adv-x="640" 
d="M585 270c0 -60 -8 -124 -43 -175c-50 -71 -136 -110 -221 -110c-83 0 -170 38 -220 106c-37 49 -46 119 -46 179v470h137v-470c0 -86 28 -157 128 -157s128 71 128 157v470h137v-470zM428 868c0 -59 -49 -107 -108 -107c-58 0 -107 49 -107 107c0 59 47 108 107 108
s108 -48 108 -108zM361 868c0 23 -18 41 -41 41s-40 -19 -40 -41s18 -40 40 -40s41 17 41 40z" />
    <glyph glyph-name="uring" unicode="&#x16f;" 
d="M544 0h-122v56h-2c-37 -51 -79 -74 -143 -74c-71 0 -145 28 -186 88c-38 55 -41 126 -41 191v294h133v-283c0 -80 16 -168 116 -168c92 0 112 93 112 167v284h133v-555zM408 698c0 -59 -49 -107 -108 -107c-58 0 -107 49 -107 107c0 59 47 108 107 108s108 -48 108 -108z
M341 698c0 23 -18 41 -41 41s-40 -19 -40 -41s18 -40 40 -40s41 17 41 40z" />
    <glyph glyph-name="Uhungarumlaut" unicode="&#x170;" horiz-adv-x="640" 
d="M585 270c0 -60 -8 -124 -43 -175c-50 -71 -136 -110 -221 -110c-83 0 -170 38 -220 106c-37 49 -46 119 -46 179v470h137v-470c0 -86 28 -157 128 -157s128 71 128 157v470h137v-470zM596 930l-207 -150l-57 76l197 163zM354 930l-207 -150l-57 76l197 163z" />
    <glyph glyph-name="uhungarumlaut" unicode="&#x171;" 
d="M544 0h-122v56h-2c-37 -51 -79 -74 -143 -74c-71 0 -145 28 -186 88c-38 55 -41 126 -41 191v294h133v-283c0 -80 16 -168 116 -168c92 0 112 93 112 167v284h133v-555zM576 760l-207 -150l-57 76l197 163zM334 760l-207 -150l-57 76l197 163z" />
    <glyph glyph-name="Uogonek" unicode="&#x172;" horiz-adv-x="640" 
d="M443 -191c-24 -9 -42 -13 -68 -13c-60 0 -115 32 -115 97c0 41 27 71 59 92c-82 1 -168 39 -218 106c-36 49 -46 119 -46 179v470h137v-470c0 -86 28 -157 128 -157s128 71 128 157v470h137v-470c0 -60 -8 -124 -43 -175c-32 -46 -76 -73 -122 -95
c-28 -14 -68 -41 -68 -79c0 -29 24 -45 51 -45c14 0 27 5 40 11v-78z" />
    <glyph glyph-name="uogonek" unicode="&#x173;" 
d="M544 0h-52c-26 -17 -64 -43 -64 -79c0 -29 24 -45 51 -45c14 0 27 5 40 11v-78c-24 -9 -42 -13 -68 -13c-60 0 -115 32 -115 97c0 52 44 86 86 107v56h-2c-37 -51 -79 -74 -143 -74c-71 0 -145 28 -186 88c-38 55 -41 126 -41 191v294h133v-283c0 -80 16 -168 116 -168
c92 0 112 93 112 167v284h133v-555z" />
    <glyph glyph-name="Wcircumflex" unicode="&#x174;" horiz-adv-x="900" 
d="M899 740l-215 -740h-109l-120 489h-2l-122 -489h-108l-216 740h140l128 -517h2l127 517h100l124 -517h2l129 517h140zM650 801h-145l-53 64l-56 -64h-145l148 138h105z" />
    <glyph glyph-name="wcircumflex" unicode="&#x175;" horiz-adv-x="800" 
d="M789 555l-203 -555h-82l-104 360h-2l-105 -360h-82l-200 555h142l101 -339h2l91 339h106l90 -339h2l102 339h142zM600 631h-145l-53 64l-56 -64h-145l148 138h105z" />
    <glyph glyph-name="Ycircumflex" unicode="&#x176;" horiz-adv-x="620" 
d="M622 740l-244 -467v-273h-137v273l-243 467h150l161 -340l162 340h151zM510 801h-145l-53 64l-56 -64h-145l148 138h105z" />
    <glyph glyph-name="ycircumflex" unicode="&#x177;" horiz-adv-x="580" 
d="M571 555l-319 -740h-143l102 237l-203 503h152l126 -356l134 356h151zM490 631h-145l-53 64l-56 -64h-145l148 138h105z" />
    <glyph glyph-name="Zacute" unicode="&#x179;" horiz-adv-x="500" 
d="M481 0h-462v112l283 500h-268v128h428v-119l-281 -493h300v-128zM408 889l-226 -125l-53 92l222 135z" />
    <glyph glyph-name="zacute" unicode="&#x17a;" horiz-adv-x="460" 
d="M442 0h-422v122l246 311h-218v122h377v-122l-246 -311h263v-122zM388 719l-226 -125l-53 92l222 135z" />
    <glyph glyph-name="Zdotaccent" unicode="&#x17b;" horiz-adv-x="500" 
d="M481 0h-462v112l283 500h-268v128h428v-119l-281 -493h300v-128zM317 806h-133v133h133v-133z" />
    <glyph glyph-name="zdotaccent" unicode="&#x17c;" horiz-adv-x="460" 
d="M442 0h-422v122l246 311h-218v122h377v-122l-246 -311h263v-122zM297 636h-133v133h133v-133z" />
    <glyph glyph-name="AEacute" unicode="&#x1fc;" horiz-adv-x="900" 
d="M824 0h-357v191h-196l-115 -191h-161l489 740h340v-128h-220v-181h209v-128h-209v-175h220v-128zM467 319v195h-2l-113 -195h115zM707 889l-226 -125l-53 92l222 135z" />
    <glyph glyph-name="aeacute" unicode="&#x1fd;" horiz-adv-x="1080" 
d="M1048 267c0 -16 -1 -33 -4 -49h-432c16 -65 82 -114 149 -114c51 0 110 21 132 71h140c-8 -25 -22 -49 -37 -70c-53 -71 -135 -123 -225 -123c-66 0 -121 20 -162 74h-2v-56h-122v56h-2c-39 -55 -105 -74 -170 -74c-159 0 -284 139 -284 295c0 158 125 297 286 297
c74 0 118 -18 170 -69v50h122v-50c48 51 100 69 170 69c148 0 271 -146 271 -289v-18zM915 325c-11 78 -76 127 -153 127s-137 -53 -154 -127h307zM481 278c0 89 -65 174 -159 174c-96 0 -160 -85 -160 -176c0 -88 67 -172 159 -172c94 0 160 84 160 174zM684 719l-226 -125
l-53 92l222 135z" />
    <glyph glyph-name="Oslashacute" unicode="&#x1fe;" horiz-adv-x="840" 
d="M807 368c0 -213 -175 -383 -387 -383c-54 0 -107 11 -156 33l-61 -89l-110 75l60 88c-77 72 -120 171 -120 276c0 215 173 387 387 387c56 0 112 -12 162 -36v1l63 94l109 -75l-64 -94c76 -72 117 -172 117 -277zM670 369c0 59 -20 116 -56 163l-276 -405
c26 -9 54 -14 82 -14c140 0 250 118 250 256zM507 611c-28 11 -57 16 -87 16c-142 0 -250 -119 -250 -258c0 -60 22 -118 60 -164zM578 889l-226 -125l-53 92l222 135z" />
    <glyph glyph-name="oslashacute" unicode="&#x1ff;" horiz-adv-x="660" 
d="M625 279c0 -168 -126 -297 -294 -297c-38 0 -76 8 -111 22l-38 -54l-99 68l37 54c-54 54 -85 128 -85 205c0 163 132 297 296 297c40 0 79 -8 116 -24c1 1 36 53 39 58l99 -69l-40 -58c52 -55 80 -126 80 -202zM492 276c0 32 -8 64 -25 91l-176 -258c13 -3 27 -5 40 -5
c94 0 161 81 161 172zM375 445c-14 5 -29 7 -44 7c-94 0 -163 -85 -163 -175c0 -34 9 -67 27 -96zM469 719l-226 -125l-53 92l222 135z" />
    <glyph glyph-name="Scommaaccent" unicode="&#x218;" horiz-adv-x="520" 
d="M493 221c0 -140 -102 -236 -240 -236c-131 0 -235 96 -241 227h144c5 -56 39 -99 98 -99c53 0 102 37 102 93c0 84 -76 100 -141 125c-23 9 -45 17 -67 28c-75 39 -109 100 -109 185c0 122 96 211 217 211c120 0 213 -91 219 -211h-140c-4 50 -31 83 -83 83
c-43 0 -76 -31 -76 -75c0 -71 68 -85 123 -103c112 -37 194 -98 194 -228zM326 -140c0 -72 -57 -119 -132 -119v57c43 7 58 24 58 58h-59v92h133v-88z" />
    <glyph glyph-name="scommaaccent" unicode="&#x219;" horiz-adv-x="440" 
d="M421 176c0 -110 -84 -194 -194 -194c-62 0 -127 24 -166 73c-29 37 -38 74 -42 120h136c9 -40 27 -71 73 -71c32 0 60 22 60 56c0 10 -2 20 -8 29c-18 25 -89 44 -117 54c-74 26 -124 77 -124 159c0 101 89 172 186 172s177 -73 181 -170h-130c-6 29 -23 48 -53 48
c-28 0 -51 -20 -51 -48c0 -29 23 -37 46 -46c16 -6 32 -11 48 -16c86 -27 155 -63 155 -166zM286 -140c0 -72 -57 -119 -132 -119v57c43 7 58 24 58 58h-59v92h133v-88z" />
    <glyph glyph-name="Tcommaaccent" unicode="&#x21a;" horiz-adv-x="420" 
d="M418 612h-138v-612h-137v612h-137v128h412v-128zM276 -140c0 -72 -57 -119 -132 -119v57c43 7 58 24 58 58h-59v92h133v-88z" />
    <glyph glyph-name="tcommaaccent" unicode="&#x21b;" horiz-adv-x="300" 
d="M299 437h-80v-437h-133v437h-65v118h65v185h133v-185h80v-118zM216 -140c0 -72 -57 -119 -132 -119v57c43 7 58 24 58 58h-59v92h133v-88z" />
    <glyph glyph-name="uni02C9" unicode="&#x2c9;" horiz-adv-x="420" 
d="M349 638h-277v111h277v-111z" />
    <glyph glyph-name="uni03A9" unicode="&#x3a9;" horiz-adv-x="712" 
d="M664 0h-254v97c53 49 126 133 126 276c0 134 -62 231 -178 231c-110 0 -183 -94 -183 -233c0 -140 71 -224 127 -274v-97h-254v101h131c-62 53 -133 141 -133 291c0 183 128 320 314 320c196 0 305 -135 305 -318c0 -138 -63 -232 -133 -293h132v-101z" />
    <glyph glyph-name="uni03BC" unicode="&#x3bc;" horiz-adv-x="630" 
d="M558 0h-126v48h-3c-26 -45 -65 -66 -120 -66c-39 0 -77 11 -104 42v-204h-133v735h133v-262c0 -37 4 -102 22 -135c18 -35 43 -54 82 -54c104 0 116 111 116 199v252h133v-555z" />
    <glyph glyph-name="pi" unicode="&#x3c0;" horiz-adv-x="656" 
d="M596 106l25 -90c-26 -16 -59 -25 -96 -25c-104 0 -142 70 -142 153v263h-102v-257c0 -60 -7 -108 -20 -150h-136c16 49 22 104 22 158v248c-26 -4 -60 -16 -87 -28l-37 89c35 19 97 40 166 40h426v-100h-98v-251c0 -38 9 -64 37 -64c8 0 25 6 42 14z" />
    <glyph glyph-name="Wgrave" unicode="&#x1e80;" horiz-adv-x="900" 
d="M899 740l-215 -740h-109l-120 489h-2l-122 -489h-108l-216 740h140l128 -517h2l127 517h100l124 -517h2l129 517h140zM569 856l-53 -92l-226 125l57 102z" />
    <glyph glyph-name="wgrave" unicode="&#x1e81;" horiz-adv-x="800" 
d="M789 555l-203 -555h-82l-104 360h-2l-105 -360h-82l-200 555h142l101 -339h2l91 339h106l90 -339h2l102 339h142zM519 686l-53 -92l-226 125l57 102z" />
    <glyph glyph-name="Wacute" unicode="&#x1e82;" horiz-adv-x="900" 
d="M899 740l-215 -740h-109l-120 489h-2l-122 -489h-108l-216 740h140l128 -517h2l127 517h100l124 -517h2l129 517h140zM608 889l-226 -125l-53 92l222 135z" />
    <glyph glyph-name="wacute" unicode="&#x1e83;" horiz-adv-x="800" 
d="M789 555l-203 -555h-82l-104 360h-2l-105 -360h-82l-200 555h142l101 -339h2l91 339h106l90 -339h2l102 339h142zM558 719l-226 -125l-53 92l222 135z" />
    <glyph glyph-name="Wdieresis" unicode="&#x1e84;" horiz-adv-x="900" 
d="M899 740l-215 -740h-109l-120 489h-2l-122 -489h-108l-216 740h140l128 -517h2l127 517h100l124 -517h2l129 517h140zM622 799h-133v133h133v-133zM412 799h-134v133h134v-133z" />
    <glyph glyph-name="wdieresis" unicode="&#x1e85;" horiz-adv-x="800" 
d="M789 555l-203 -555h-82l-104 360h-2l-105 -360h-82l-200 555h142l101 -339h2l91 339h106l90 -339h2l102 339h142zM572 629h-133v133h133v-133zM362 629h-134v133h134v-133z" />
    <glyph glyph-name="Ygrave" unicode="&#x1ef2;" horiz-adv-x="620" 
d="M622 740l-244 -467v-273h-137v273l-243 467h150l161 -340l162 340h151zM429 856l-53 -92l-226 125l57 102z" />
    <glyph glyph-name="ygrave" unicode="&#x1ef3;" horiz-adv-x="580" 
d="M571 555l-319 -740h-143l102 237l-203 503h152l126 -356l134 356h151zM409 686l-53 -92l-226 125l57 102z" />
    <glyph glyph-name="Euro" unicode="&#x20ac;" horiz-adv-x="560" 
d="M541 194c-10 -64 -29 -116 -66 -152s-86 -56 -155 -56c-81 0 -133 29 -172 76c-38 45 -55 104 -65 173h-83l34 95h41v40v15h-75l34 95h48c10 73 26 138 63 186c39 51 94 88 178 88c68 0 117 -23 154 -61c35 -38 54 -88 61 -145h-125c-5 22 -12 44 -26 57
c-15 15 -37 23 -64 23c-43 0 -68 -16 -86 -48c-14 -24 -19 -56 -24 -100h272l-34 -95h-243v-15v-40h223l-35 -95h-180c5 -32 9 -57 21 -76c18 -32 44 -47 88 -47c32 0 53 8 69 26c13 14 18 34 23 56h124z" />
    <glyph glyph-name="litre" unicode="&#x2113;" horiz-adv-x="499" 
d="M378 127l40 -72c-31 -31 -83 -70 -143 -70c-43 0 -73 14 -97 38c-28 29 -42 78 -42 129v64l-44 -48l-45 62l89 94v209c0 129 58 194 144 194c85 0 114 -68 114 -120c0 -97 -49 -178 -114 -259c-10 -12 -23 -26 -30 -35v-154c0 -61 21 -82 49 -82s57 26 79 50zM312 596
c0 20 -7 41 -24 41c-24 0 -38 -26 -38 -91v-115c38 52 62 114 62 165z" />
    <glyph glyph-name="Omega" unicode="&#x2126;" horiz-adv-x="712" 
d="M664 0h-254v97c53 49 126 133 126 276c0 134 -62 231 -178 231c-110 0 -183 -94 -183 -233c0 -140 71 -224 127 -274v-97h-254v101h131c-62 53 -133 141 -133 291c0 183 128 320 314 320c196 0 305 -135 305 -318c0 -138 -63 -232 -133 -293h132v-101z" />
    <glyph glyph-name="estimated" unicode="&#x212e;" horiz-adv-x="662" 
d="M607 288h-444v-198c42 -42 95 -65 157 -65c99 0 164 50 213 131l36 -22c-60 -89 -129 -146 -249 -146c-172 0 -280 134 -280 300c0 167 106 300 281 300c179 0 281 -133 286 -300zM480 325v160c-42 42 -99 66 -160 66c-62 0 -115 -21 -157 -64v-162h317z" />
    <glyph glyph-name="partialdiff" unicode="&#x2202;" horiz-adv-x="582" 
d="M547 472c0 -61 -9 -126 -25 -188c-39 -151 -134 -295 -284 -295c-117 0 -196 81 -196 199c0 200 137 312 264 312c54 0 95 -20 121 -47c1 11 1 23 1 35c0 95 -45 146 -119 146c-30 0 -67 -13 -98 -31l-29 86c31 21 87 39 141 39c135 0 224 -90 224 -256zM240 86
c80 0 145 112 170 257c-13 38 -42 67 -90 67c-82 0 -157 -99 -157 -228c0 -58 31 -96 77 -96z" />
    <glyph glyph-name="Delta" unicode="&#x2206;" horiz-adv-x="616" 
d="M605 0h-594v55l223 645h150l221 -645v-55zM461 102l-145 431c-4 12 -8 25 -10 34h-2c-2 -9 -6 -22 -10 -33l-145 -432h312z" />
    <glyph glyph-name="product" unicode="&#x220f;" horiz-adv-x="721" 
d="M645 -224h-123v818h-322v-818h-123v924h568v-924z" />
    <glyph glyph-name="summation" unicode="&#x2211;" horiz-adv-x="633" 
d="M587 -224h-567v62l297 404l-277 390v68h525v-101h-370l252 -354l-269 -368h409v-101z" />
    <glyph glyph-name="uni2215" unicode="&#x2215;" horiz-adv-x="160" 
d="M282 740l-307 -740h-98l306 740h99z" />
    <glyph glyph-name="uni2219" unicode="&#x2219;" horiz-adv-x="280" 
d="M206 279h-133v133h133v-133z" />
    <glyph glyph-name="radical" unicode="&#x221a;" horiz-adv-x="542" 
d="M543 728l-184 -740h-112l-126 310l-51 -32l-43 68l165 105l107 -267l138 556h106z" />
    <glyph glyph-name="infinity" unicode="&#x221e;" horiz-adv-x="790" 
d="M741 296c0 -100 -71 -181 -177 -181c-69 0 -130 38 -174 91c-42 -52 -100 -91 -170 -91c-98 0 -180 68 -180 178c0 112 82 179 178 179c72 0 134 -44 174 -88c33 45 89 88 169 88c105 0 180 -72 180 -176zM627 295c0 40 -23 74 -71 74c-45 0 -78 -28 -108 -74
c30 -43 70 -78 108 -78c48 0 71 37 71 78zM226 217c41 0 78 36 106 77c-28 43 -67 75 -107 75c-48 0 -71 -35 -71 -77s30 -75 72 -75z" />
    <glyph glyph-name="integral" unicode="&#x222b;" horiz-adv-x="492" 
d="M440 729l-26 -88c-14 5 -35 10 -50 10c-41 0 -64 -28 -64 -82v-606c0 -112 -56 -187 -171 -187c-26 0 -67 7 -88 16l24 92c17 -8 34 -12 49 -12c42 0 65 29 65 81v607c0 112 56 188 172 188c30 0 70 -9 89 -19z" />
    <glyph glyph-name="approxequal" unicode="&#x2248;" 
d="M403 95c-37 0 -79 9 -117 32c-27 15 -57 30 -87 30c-38 0 -68 -43 -86 -71l-80 91c40 55 85 99 162 99c44 0 83 -12 116 -31c32 -18 61 -31 89 -31c35 0 65 39 86 71l80 -90c-45 -65 -90 -100 -163 -100zM403 323c-37 0 -79 9 -117 32c-27 15 -57 30 -87 30
c-38 0 -68 -43 -86 -71l-80 91c40 55 85 99 162 99c44 0 83 -12 116 -31c32 -18 61 -31 89 -31c35 0 65 39 86 71l80 -90c-45 -65 -90 -100 -163 -100z" />
    <glyph glyph-name="notequal" unicode="&#x2260;" 
d="M552 81h-275l-50 -104h-133l50 104h-96v120h155l50 104h-205v120h264l61 126h133l-61 -126h107v-120h-166l-50 -104h216v-120z" />
    <glyph glyph-name="lessequal" unicode="&#x2264;" 
d="M552 152l-504 188v103l504 187v-126l-335 -115l335 -113v-124zM552 0h-504v120h504v-120z" />
    <glyph glyph-name="greaterequal" unicode="&#x2265;" 
d="M552 340l-504 -188v124l335 113l-335 115v126l504 -187v-103zM552 0h-504v120h504v-120z" />
    <glyph glyph-name="lozenge" unicode="&#x25ca;" 
d="M553 351l-202 -351h-103l-201 348l202 352h102zM432 350l-132 229l-133 -229l132 -228z" />
    <glyph glyph-name="A.alt01" unicode="&#xe000;" horiz-adv-x="715" 
d="M645 0h-137v191h-210l-132 -191h-166l520 740h125v-740zM508 319v177h-2l-120 -177h122z" />
    <glyph glyph-name="Aacute.alt01" unicode="&#xe001;" horiz-adv-x="715" 
d="M645 0h-137v191h-210l-132 -191h-166l520 740h125v-740zM508 319v177h-2l-120 -177h122zM739 885l-226 -125l-53 92l222 135z" />
    <glyph glyph-name="Agrave.alt01" unicode="&#xe002;" horiz-adv-x="715" 
d="M645 0h-137v191h-210l-132 -191h-166l520 740h125v-740zM508 319v177h-2l-120 -177h122zM666 856l-53 -92l-226 125l57 102z" />
    <glyph glyph-name="Acircumflex.alt01" unicode="&#xe003;" horiz-adv-x="715" 
d="M645 0h-137v191h-210l-132 -191h-166l520 740h125v-740zM508 319v177h-2l-120 -177h122zM782 798h-131l-80 67l-80 -67h-133l170 154h88z" />
    <glyph glyph-name="Adieresis.alt01" unicode="&#xe004;" horiz-adv-x="715" 
d="M645 0h-137v191h-210l-132 -191h-166l520 740h125v-740zM508 319v177h-2l-120 -177h122zM751 801h-126v142h126v-142zM535 801h-126v142h126v-142z" />
    <glyph glyph-name="Atilde.alt01" unicode="&#xe005;" horiz-adv-x="715" 
d="M645 0h-137v191h-210l-132 -191h-166l520 740h125v-740zM508 319v177h-2l-120 -177h122zM753 847c-33 -23 -69 -37 -109 -37c-55 0 -108 28 -163 28c-30 0 -53 -8 -77 -26l-46 90c29 21 70 36 106 36c57 0 109 -28 165 -28c29 0 55 6 78 25z" />
    <glyph glyph-name="Aring.alt01" unicode="&#xe006;" horiz-adv-x="715" 
d="M645 0h-137v191h-210l-132 -191h-166l520 740h125v-740zM508 319v177h-2l-120 -177h122zM685 881c0 -64 -53 -117 -117 -117s-117 53 -117 117c0 65 53 117 118 117c64 0 116 -53 116 -117zM617 882c0 28 -22 49 -50 49c-27 0 -48 -23 -48 -50s23 -48 49 -48
c27 0 49 22 49 49z" />
    <glyph glyph-name="Amacron.alt01" unicode="&#xe007;" horiz-adv-x="715" 
d="M645 0h-137v191h-210l-132 -191h-166l520 740h125v-740zM508 319v177h-2l-120 -177h122zM698 808h-277v111h277v-111z" />
    <glyph glyph-name="Abreve.alt01" unicode="&#xe008;" horiz-adv-x="715" 
d="M645 0h-137v191h-210l-132 -191h-166l520 740h125v-740zM508 319v177h-2l-120 -177h122zM757 935c-15 -102 -106 -137 -199 -137c-92 0 -183 36 -198 137h108c20 -31 56 -40 90 -40c35 0 71 8 91 40h108z" />
    <glyph glyph-name="Aogonek.alt01" unicode="&#xe009;" horiz-adv-x="715" 
d="M645 0h-67c-26 -17 -64 -43 -64 -79c0 -29 24 -45 51 -45c14 0 27 5 40 11v-78c-24 -9 -42 -13 -68 -13c-60 0 -115 32 -115 97c0 52 44 86 86 107v191h-210l-132 -191h-166l520 740h125v-740zM508 319v177h-2l-120 -177h122z" />
    <glyph glyph-name="A.alt02" unicode="&#xe00a;" horiz-adv-x="706" 
d="M706 0h-166l-132 191h-210v-191h-137v740h125zM320 319l-120 177h-2v-177h122z" />
    <glyph glyph-name="Aacute.alt02" unicode="&#xe00b;" horiz-adv-x="706" 
d="M706 0h-166l-132 191h-210v-191h-137v740h125zM320 319l-120 177h-2v-177h122zM320 886l-226 -125l-53 92l222 135z" />
    <glyph glyph-name="Agrave.alt02" unicode="&#xe00c;" horiz-adv-x="706" 
d="M706 0h-166l-132 191h-210v-191h-137v740h125zM320 319l-120 177h-2v-177h122zM266 850l-53 -92l-226 125l57 102z" />
    <glyph glyph-name="Acircumflex.alt02" unicode="&#xe00d;" horiz-adv-x="706" 
d="M706 0h-166l-132 191h-210v-191h-137v740h125zM320 319l-120 177h-2v-177h122zM353 798h-131l-80 67l-80 -67h-133l170 154h88z" />
    <glyph glyph-name="Adieresis.alt02" unicode="&#xe00e;" horiz-adv-x="706" 
d="M706 0h-166l-132 191h-210v-191h-137v740h125zM320 319l-120 177h-2v-177h122zM298 801h-126v142h126v-142zM82 801h-126v142h126v-142z" />
    <glyph glyph-name="Atilde.alt02" unicode="&#xe00f;" horiz-adv-x="706" 
d="M706 0h-166l-132 191h-210v-191h-137v740h125zM320 319l-120 177h-2v-177h122zM335 846c-32 -24 -68 -38 -108 -38c-56 0 -109 29 -164 29c-30 0 -53 -8 -76 -26l-46 90c30 21 69 36 106 36c57 0 108 -28 165 -28c28 0 55 5 77 24z" />
    <glyph glyph-name="Aring.alt02" unicode="&#xe010;" horiz-adv-x="706" 
d="M706 0h-166l-132 191h-210v-191h-137v740h125zM320 319l-120 177h-2v-177h122zM245 881c0 -64 -53 -117 -117 -117s-117 53 -117 117c0 65 53 117 118 117c64 0 116 -53 116 -117zM177 882c0 28 -22 49 -50 49c-27 0 -48 -23 -48 -50s23 -48 49 -48c27 0 49 22 49 49z
" />
    <glyph glyph-name="Amacron.alt02" unicode="&#xe011;" horiz-adv-x="706" 
d="M706 0h-166l-132 191h-210v-191h-137v740h125zM320 319l-120 177h-2v-177h122zM276 808h-277v111h277v-111z" />
    <glyph glyph-name="Abreve.alt02" unicode="&#xe012;" horiz-adv-x="706" 
d="M706 0h-166l-132 191h-210v-191h-137v740h125zM320 319l-120 177h-2v-177h122zM348 935c-15 -102 -106 -137 -199 -137c-92 0 -183 36 -198 137h108c20 -31 56 -40 90 -40c35 0 71 8 91 40h108z" />
    <glyph glyph-name="Aogonek.alt02" unicode="&#xe013;" horiz-adv-x="706" 
d="M706 0h-96c-26 -17 -64 -43 -64 -79c0 -29 24 -45 51 -45c14 0 27 5 40 11v-78c-24 -9 -42 -13 -68 -13c-60 0 -115 32 -115 97c0 52 44 86 86 107l-132 191h-210v-191h-137v740h125zM320 319l-120 177h-2v-177h122z" />
    <glyph glyph-name="A.alt03" unicode="&#xe014;" horiz-adv-x="867" 
d="M796 0h-137v94h-2c-50 -66 -131 -109 -254 -109c-208 0 -370 170 -370 383c0 229 181 387 368 387c115 0 201 -39 256 -112h2v97h137v-740zM670 369c0 140 -111 258 -250 258c-144 0 -250 -113 -250 -258c0 -137 99 -256 250 -256s250 119 250 256z" />
    <glyph glyph-name="Aacute.alt03" unicode="&#xe015;" horiz-adv-x="867" 
d="M796 0h-137v94h-2c-50 -66 -131 -109 -254 -109c-208 0 -370 170 -370 383c0 229 181 387 368 387c115 0 201 -39 256 -112h2v97h137v-740zM670 369c0 140 -111 258 -250 258c-144 0 -250 -113 -250 -258c0 -137 99 -256 250 -256s250 119 250 256zM582 901l-226 -125
l-53 92l222 135z" />
    <glyph glyph-name="Agrave.alt03" unicode="&#xe016;" horiz-adv-x="867" 
d="M796 0h-137v94h-2c-50 -66 -131 -109 -254 -109c-208 0 -370 170 -370 383c0 229 181 387 368 387c115 0 201 -39 256 -112h2v97h137v-740zM670 369c0 140 -111 258 -250 258c-144 0 -250 -113 -250 -258c0 -137 99 -256 250 -256s250 119 250 256zM520 865l-53 -92
l-226 125l57 102z" />
    <glyph glyph-name="Acircumflex.alt03" unicode="&#xe017;" horiz-adv-x="867" 
d="M796 0h-137v94h-2c-50 -66 -131 -109 -254 -109c-208 0 -370 170 -370 383c0 229 181 387 368 387c115 0 201 -39 256 -112h2v97h137v-740zM670 369c0 140 -111 258 -250 258c-144 0 -250 -113 -250 -258c0 -137 99 -256 250 -256s250 119 250 256zM627 798h-131l-80 67
l-80 -67h-133l170 154h88z" />
    <glyph glyph-name="Adieresis.alt03" unicode="&#xe018;" horiz-adv-x="867" 
d="M796 0h-137v94h-2c-50 -66 -131 -109 -254 -109c-208 0 -370 170 -370 383c0 229 181 387 368 387c115 0 201 -39 256 -112h2v97h137v-740zM670 369c0 140 -111 258 -250 258c-144 0 -250 -113 -250 -258c0 -137 99 -256 250 -256s250 119 250 256zM601 801h-126v142h126
v-142zM385 801h-126v142h126v-142z" />
    <glyph glyph-name="Atilde.alt03" unicode="&#xe019;" horiz-adv-x="867" 
d="M796 0h-137v94h-2c-50 -66 -131 -109 -254 -109c-208 0 -370 170 -370 383c0 229 181 387 368 387c115 0 201 -39 256 -112h2v97h137v-740zM670 369c0 140 -111 258 -250 258c-144 0 -250 -113 -250 -258c0 -137 99 -256 250 -256s250 119 250 256zM610 846
c-32 -24 -68 -38 -108 -38c-56 0 -109 29 -164 29c-30 0 -53 -8 -76 -26l-46 90c30 21 69 36 106 36c57 0 108 -28 165 -28c28 0 55 5 77 24z" />
    <glyph glyph-name="Aring.alt03" unicode="&#xe01a;" horiz-adv-x="867" 
d="M796 0h-137v94h-2c-50 -66 -131 -109 -254 -109c-208 0 -370 170 -370 383c0 229 181 387 368 387c115 0 201 -39 256 -112h2v97h137v-740zM670 369c0 140 -111 258 -250 258c-144 0 -250 -113 -250 -258c0 -137 99 -256 250 -256s250 119 250 256zM514 889
c0 -59 -49 -107 -108 -107c-58 0 -107 49 -107 107c0 59 47 108 107 108s108 -48 108 -108zM447 889c0 23 -18 41 -41 41s-40 -19 -40 -41s18 -40 40 -40s41 17 41 40z" />
    <glyph glyph-name="Amacron.alt03" unicode="&#xe01b;" horiz-adv-x="867" 
d="M796 0h-137v94h-2c-50 -66 -131 -109 -254 -109c-208 0 -370 170 -370 383c0 229 181 387 368 387c115 0 201 -39 256 -112h2v97h137v-740zM670 369c0 140 -111 258 -250 258c-144 0 -250 -113 -250 -258c0 -137 99 -256 250 -256s250 119 250 256zM552 808h-277v111h277
v-111z" />
    <glyph glyph-name="Abreve.alt03" unicode="&#xe01c;" horiz-adv-x="867" 
d="M796 0h-137v94h-2c-50 -66 -131 -109 -254 -109c-208 0 -370 170 -370 383c0 229 181 387 368 387c115 0 201 -39 256 -112h2v97h137v-740zM670 369c0 140 -111 258 -250 258c-144 0 -250 -113 -250 -258c0 -137 99 -256 250 -256s250 119 250 256zM602 945
c-15 -102 -106 -137 -199 -137c-92 0 -183 36 -198 137h108c20 -31 56 -40 90 -40c35 0 71 8 91 40h108z" />
    <glyph glyph-name="Aogonek.alt03" unicode="&#xe01d;" horiz-adv-x="867" 
d="M796 0h-67c-26 -17 -64 -41 -64 -79c0 -29 24 -45 51 -45c14 0 27 5 40 11v-78c-24 -9 -42 -13 -68 -13c-60 0 -115 32 -115 97c0 52 44 86 86 107v94h-2c-50 -66 -131 -109 -254 -109c-208 0 -370 170 -370 383c0 229 181 387 368 387c115 0 201 -39 256 -112h2v97h137
v-740zM670 369c0 140 -111 258 -250 258c-144 0 -250 -113 -250 -258c0 -137 99 -256 250 -256s250 119 250 256z" />
    <glyph glyph-name="C.alt01" unicode="&#xe01e;" horiz-adv-x="577" 
d="M543 5c-29 -10 -68 -20 -126 -20c-197 0 -383 134 -383 387c0 240 181 383 383 383c55 0 94 -8 126 -20v-142c-27 18 -74 34 -125 34c-145 0 -247 -108 -247 -258c0 -156 109 -256 243 -256c55 0 101 14 129 35v-143z" />
    <glyph glyph-name="Ccedilla.alt01" unicode="&#xe01f;" horiz-adv-x="577" 
d="M543 5c-29 -10 -68 -20 -126 -20c-10 0 -19 0 -29 1l-18 -41c7 1 15 2 25 2c48 0 93 -35 93 -100c0 -64 -46 -98 -100 -98c-69 0 -100 58 -100 87h53c4 -22 23 -37 47 -37c27 0 46 20 46 48c0 27 -20 50 -47 50c-15 0 -33 -4 -43 -22l-49 19l43 98
c-165 31 -304 161 -304 380c0 240 181 383 383 383c55 0 94 -8 126 -20v-142c-27 18 -74 34 -125 34c-145 0 -247 -108 -247 -258c0 -156 109 -256 243 -256c55 0 101 14 129 35v-143z" />
    <glyph glyph-name="Cacute.alt01" unicode="&#xe020;" horiz-adv-x="577" 
d="M543 5c-29 -10 -68 -20 -126 -20c-197 0 -383 134 -383 387c0 240 181 383 383 383c55 0 94 -8 126 -20v-142c-27 18 -74 34 -125 34c-145 0 -247 -108 -247 -258c0 -156 109 -256 243 -256c55 0 101 14 129 35v-143zM546 899l-226 -125l-53 92l222 135z" />
    <glyph glyph-name="Ccircumflex.alt01" unicode="&#xe021;" horiz-adv-x="577" 
d="M543 5c-29 -10 -68 -20 -126 -20c-197 0 -383 134 -383 387c0 240 181 383 383 383c55 0 94 -8 126 -20v-142c-27 18 -74 34 -125 34c-145 0 -247 -108 -247 -258c0 -156 109 -256 243 -256c55 0 101 14 129 35v-143zM568 811h-145l-53 64l-56 -64h-145l148 138h105z" />
    <glyph glyph-name="Cdotaccent.alt01" unicode="&#xe022;" horiz-adv-x="577" 
d="M543 5c-29 -10 -68 -20 -126 -20c-197 0 -383 134 -383 387c0 240 181 383 383 383c55 0 94 -8 126 -20v-142c-27 18 -74 34 -125 34c-145 0 -247 -108 -247 -258c0 -156 109 -256 243 -256c55 0 101 14 129 35v-143zM435 816h-133v133h133v-133z" />
    <glyph glyph-name="Ccaron.alt01" unicode="&#xe023;" horiz-adv-x="577" 
d="M543 5c-29 -10 -68 -20 -126 -20c-197 0 -383 134 -383 387c0 240 181 383 383 383c55 0 94 -8 126 -20v-142c-27 18 -74 34 -125 34c-145 0 -247 -108 -247 -258c0 -156 109 -256 243 -256c55 0 101 14 129 35v-143zM568 941l-146 -138h-105l-148 138h145l56 -64l53 64
h145z" />
    <glyph glyph-name="E.alt01" unicode="&#xe024;" horiz-adv-x="577" 
d="M543 5c-29 -10 -68 -20 -126 -20c-211 0 -383 147 -383 387c0 230 171 383 383 383c55 0 94 -8 126 -20v-142c-24 17 -70 34 -125 34c-124 0 -219 -81 -240 -196h353v-128h-353c27 -120 124 -190 236 -190c55 0 100 13 129 35v-143z" />
    <glyph glyph-name="Eacute.alt01" unicode="&#xe025;" horiz-adv-x="577" 
d="M543 5c-29 -10 -68 -20 -126 -20c-211 0 -383 147 -383 387c0 230 171 383 383 383c55 0 94 -8 126 -20v-142c-24 17 -70 34 -125 34c-124 0 -219 -81 -240 -196h353v-128h-353c27 -120 124 -190 236 -190c55 0 100 13 129 35v-143zM532 904l-226 -125l-53 92l222 135z
" />
    <glyph glyph-name="Egrave.alt01" unicode="&#xe026;" horiz-adv-x="577" 
d="M543 5c-29 -10 -68 -20 -126 -20c-211 0 -383 147 -383 387c0 230 171 383 383 383c55 0 94 -8 126 -20v-142c-24 17 -70 34 -125 34c-124 0 -219 -81 -240 -196h353v-128h-353c27 -120 124 -190 236 -190c55 0 100 13 129 35v-143zM487 880l-53 -92l-226 125l57 102z
" />
    <glyph glyph-name="Ecircumflex.alt01" unicode="&#xe027;" horiz-adv-x="577" 
d="M543 5c-29 -10 -68 -20 -126 -20c-211 0 -383 147 -383 387c0 230 171 383 383 383c55 0 94 -8 126 -20v-142c-24 17 -70 34 -125 34c-124 0 -219 -81 -240 -196h353v-128h-353c27 -120 124 -190 236 -190c55 0 100 13 129 35v-143zM568 804h-131l-80 67l-80 -67h-132
l170 154h87z" />
    <glyph glyph-name="Edieresis.alt01" unicode="&#xe028;" horiz-adv-x="577" 
d="M543 5c-29 -10 -68 -20 -126 -20c-211 0 -383 147 -383 387c0 230 171 383 383 383c55 0 94 -8 126 -20v-142c-24 17 -70 34 -125 34c-124 0 -219 -81 -240 -196h353v-128h-353c27 -120 124 -190 236 -190c55 0 100 13 129 35v-143zM535 807h-127v143h127v-143zM318 807
h-126v143h126v-143z" />
    <glyph glyph-name="Emacron.alt01" unicode="&#xe029;" horiz-adv-x="577" 
d="M543 5c-29 -10 -68 -20 -126 -20c-211 0 -383 147 -383 387c0 230 171 383 383 383c55 0 94 -8 126 -20v-142c-24 17 -70 34 -125 34c-124 0 -219 -81 -240 -196h353v-128h-353c27 -120 124 -190 236 -190c55 0 100 13 129 35v-143zM506 808h-277v111h277v-111z" />
    <glyph glyph-name="Ebreve.alt01" unicode="&#xe02a;" horiz-adv-x="577" 
d="M543 5c-29 -10 -68 -20 -126 -20c-211 0 -383 147 -383 387c0 230 171 383 383 383c55 0 94 -8 126 -20v-142c-24 17 -70 34 -125 34c-124 0 -219 -81 -240 -196h353v-128h-353c27 -120 124 -190 236 -190c55 0 100 13 129 35v-143zM546 945
c-15 -102 -106 -137 -199 -137c-92 0 -183 36 -198 137h108c20 -31 56 -40 90 -40c35 0 71 8 91 40h108z" />
    <glyph glyph-name="Edotaccent.alt01" unicode="&#xe02b;" horiz-adv-x="577" 
d="M543 5c-29 -10 -68 -20 -126 -20c-211 0 -383 147 -383 387c0 230 171 383 383 383c55 0 94 -8 126 -20v-142c-24 17 -70 34 -125 34c-124 0 -219 -81 -240 -196h353v-128h-353c27 -120 124 -190 236 -190c55 0 100 13 129 35v-143zM434 806h-133v133h133v-133z" />
    <glyph glyph-name="Eogonek.alt01" unicode="&#xe02c;" horiz-adv-x="577" 
d="M490 -204c-60 0 -115 32 -115 97c0 41 27 71 61 92h-19c-211 0 -383 147 -383 387c0 230 171 383 383 383c55 0 94 -8 126 -20v-142c-24 17 -70 34 -125 34c-124 0 -219 -81 -240 -196h353v-128h-353c27 -120 124 -190 236 -190c55 0 100 13 129 35v-143
c-26 -11 -76 -44 -76 -84c0 -29 24 -45 51 -45c14 0 27 5 40 11v-78c-24 -9 -42 -13 -68 -13z" />
    <glyph glyph-name="Ecaron.alt01" unicode="&#xe02d;" horiz-adv-x="577" 
d="M543 5c-29 -10 -68 -20 -126 -20c-211 0 -383 147 -383 387c0 230 171 383 383 383c55 0 94 -8 126 -20v-142c-24 17 -70 34 -125 34c-124 0 -219 -81 -240 -196h353v-128h-353c27 -120 124 -190 236 -190c55 0 100 13 129 35v-143zM557 941l-146 -138h-105l-148 138h145
l56 -64l53 64h145z" />
    <glyph glyph-name="E.alt02" unicode="&#xe02e;" horiz-adv-x="840" 
d="M807 368c0 -22 -1 -47 -4 -65h-624c25 -104 123 -190 241 -190c94 0 173 55 212 121h151c-55 -143 -194 -249 -363 -249c-220 0 -387 176 -387 384c0 212 171 386 386 386c221 0 388 -178 388 -387zM662 431c-18 86 -103 196 -242 196c-129 0 -223 -101 -243 -196h485z
" />
    <glyph glyph-name="Eacute.alt02" unicode="&#xe02f;" horiz-adv-x="840" 
d="M807 368c0 -22 -1 -47 -4 -65h-624c25 -104 123 -190 241 -190c94 0 173 55 212 121h151c-55 -143 -194 -249 -363 -249c-220 0 -387 176 -387 384c0 212 171 386 386 386c221 0 388 -178 388 -387zM662 431c-18 86 -103 196 -242 196c-129 0 -223 -101 -243 -196h485z
M575 899l-226 -125l-53 92l222 135z" />
    <glyph glyph-name="Egrave.alt02" unicode="&#xe030;" horiz-adv-x="840" 
d="M807 368c0 -22 -1 -47 -4 -65h-624c25 -104 123 -190 241 -190c94 0 173 55 212 121h151c-55 -143 -194 -249 -363 -249c-220 0 -387 176 -387 384c0 212 171 386 386 386c221 0 388 -178 388 -387zM662 431c-18 86 -103 196 -242 196c-129 0 -223 -101 -243 -196h485z
M519 875l-53 -92l-226 125l57 102z" />
    <glyph glyph-name="Ecircumflex.alt02" unicode="&#xe031;" horiz-adv-x="840" 
d="M807 368c0 -22 -1 -47 -4 -65h-624c25 -104 123 -190 241 -190c94 0 173 55 212 121h151c-55 -143 -194 -249 -363 -249c-220 0 -387 176 -387 384c0 212 171 386 386 386c221 0 388 -178 388 -387zM662 431c-18 86 -103 196 -242 196c-129 0 -223 -101 -243 -196h485z
M622 798h-131l-80 67l-80 -67h-133l170 154h88z" />
    <glyph glyph-name="Edieresis.alt02" unicode="&#xe032;" horiz-adv-x="840" 
d="M807 368c0 -22 -1 -47 -4 -65h-624c25 -104 123 -190 241 -190c94 0 173 55 212 121h151c-55 -143 -194 -249 -363 -249c-220 0 -387 176 -387 384c0 212 171 386 386 386c221 0 388 -178 388 -387zM662 431c-18 86 -103 196 -242 196c-129 0 -223 -101 -243 -196h485z
M585 801h-126v142h126v-142zM369 801h-126v142h126v-142z" />
    <glyph glyph-name="Emacron.alt02" unicode="&#xe033;" horiz-adv-x="840" 
d="M807 368c0 -22 -1 -47 -4 -65h-624c25 -104 123 -190 241 -190c94 0 173 55 212 121h151c-55 -143 -194 -249 -363 -249c-220 0 -387 176 -387 384c0 212 171 386 386 386c221 0 388 -178 388 -387zM662 431c-18 86 -103 196 -242 196c-129 0 -223 -101 -243 -196h485z
M559 808h-277v111h277v-111z" />
    <glyph glyph-name="Ebreve.alt02" unicode="&#xe034;" horiz-adv-x="840" 
d="M807 368c0 -22 -1 -47 -4 -65h-624c25 -104 123 -190 241 -190c94 0 173 55 212 121h151c-55 -143 -194 -249 -363 -249c-220 0 -387 176 -387 384c0 212 171 386 386 386c221 0 388 -178 388 -387zM662 431c-18 86 -103 196 -242 196c-129 0 -223 -101 -243 -196h485z
M619 945c-15 -102 -106 -137 -199 -137c-92 0 -183 36 -198 137h108c20 -31 56 -40 90 -40c35 0 71 8 91 40h108z" />
    <glyph glyph-name="Edotaccent.alt02" unicode="&#xe035;" horiz-adv-x="840" 
d="M807 368c0 -22 -1 -47 -4 -65h-624c25 -104 123 -190 241 -190c94 0 173 55 212 121h151c-55 -143 -194 -249 -363 -249c-220 0 -387 176 -387 384c0 212 171 386 386 386c221 0 388 -178 388 -387zM662 431c-18 86 -103 196 -242 196c-129 0 -223 -101 -243 -196h485z
M487 806h-133v133h133v-133z" />
    <glyph glyph-name="Eogonek.alt02" unicode="&#xe036;" horiz-adv-x="840" 
d="M498 -204c-60 0 -115 32 -115 97c0 42 29 73 63 93c-12 -1 -21 -1 -26 -1c-220 0 -387 176 -387 384c0 212 171 386 386 386c221 0 388 -178 388 -387c0 -22 -1 -47 -4 -65h-624c25 -104 123 -190 241 -190c94 0 173 55 212 121h151c-65 -157 -176 -204 -244 -235
c-25 -12 -64 -42 -64 -78c0 -29 24 -45 51 -45c14 0 27 5 40 11v-78c-24 -9 -42 -13 -68 -13zM662 431c-18 86 -103 196 -242 196c-129 0 -223 -101 -243 -196h485z" />
    <glyph glyph-name="Ecaron.alt02" unicode="&#xe037;" horiz-adv-x="840" 
d="M807 368c0 -22 -1 -47 -4 -65h-624c25 -104 123 -190 241 -190c94 0 173 55 212 121h151c-55 -143 -194 -249 -363 -249c-220 0 -387 176 -387 384c0 212 171 386 386 386c221 0 388 -178 388 -387zM662 431c-18 86 -103 196 -242 196c-129 0 -223 -101 -243 -196h485z
M620 941l-146 -138h-105l-148 138h145l56 -64l53 64h145z" />
    <glyph glyph-name="K.alt01" unicode="&#xe038;" horiz-adv-x="627" 
d="M627 0h-168l-180 280l-71 -92v-188h-137v740h137v-356h2l249 356h166l-262 -347z" />
    <glyph glyph-name="Kcommaaccent.alt01" unicode="&#xe039;" horiz-adv-x="627" 
d="M627 0h-168l-180 280l-71 -92v-188h-137v740h137v-356h2l249 356h166l-262 -347zM380 -140c0 -72 -57 -119 -132 -119v57c43 7 58 24 58 58h-59v92h133v-88z" />
    <glyph glyph-name="K.alt02" unicode="&#xe03a;" horiz-adv-x="631" 
d="M631 0h-168l-254 372l256 368h160l-264 -368zM208 0h-137v740h137v-740z" />
    <glyph glyph-name="Kcommaaccent.alt02" unicode="&#xe03b;" horiz-adv-x="631" 
d="M631 0h-168l-254 372l256 368h160l-264 -368zM208 0h-137v740h137v-740zM382 -140c0 -72 -57 -119 -132 -119v57c43 7 58 24 58 58h-59v92h133v-88z" />
    <glyph glyph-name="M.alt01" unicode="&#xe03c;" horiz-adv-x="1175" 
d="M1105 0h-137v479h-2l-340 -479h-134v486h-2l-339 -486h-165l530 740h113v-511h2l367 511h107v-740z" />
    <glyph glyph-name="M.alt02" unicode="&#xe03d;" horiz-adv-x="1166" 
d="M1180 0h-165l-339 486h-2v-486h-134l-340 479h-2v-479h-137v740h107l367 -511h2v511h113z" />
    <glyph glyph-name="M.alt03" unicode="&#xe03e;" horiz-adv-x="1138" 
d="M1073 0h-137v427c0 128 -35 200 -142 200c-86 0 -154 -62 -154 -194v-433h-137v427c0 128 -34 200 -141 200c-86 0 -154 -62 -154 -194v-433h-137v740h133v-78h3c53 85 144 93 184 93c106 0 171 -57 203 -119h3c38 61 100 119 217 119c106 0 166 -41 211 -110
c34 -52 48 -117 48 -200v-445z" />
    <glyph glyph-name="N.alt01" unicode="&#xe03f;" horiz-adv-x="732" 
d="M667 0h-137v427c0 128 -50 200 -157 200c-86 0 -165 -62 -165 -194v-433h-137v740h133v-78h3c53 85 158 93 198 93c102 0 174 -49 214 -110c34 -52 48 -117 48 -200v-445z" />
    <glyph glyph-name="Ntilde.alt01" unicode="&#xe040;" horiz-adv-x="732" 
d="M667 0h-137v427c0 128 -50 200 -157 200c-86 0 -165 -62 -165 -194v-433h-137v740h133v-78h3c53 85 158 93 198 93c102 0 174 -49 214 -110c34 -52 48 -117 48 -200v-445zM565 846c-32 -24 -68 -38 -108 -38c-56 0 -109 29 -164 29c-30 0 -53 -8 -76 -26l-46 90
c30 21 69 36 106 36c57 0 108 -28 165 -28c28 0 55 5 77 24z" />
    <glyph glyph-name="Nacute.alt01" unicode="&#xe041;" horiz-adv-x="732" 
d="M667 0h-137v427c0 128 -50 200 -157 200c-86 0 -165 -62 -165 -194v-433h-137v740h133v-78h3c53 85 158 93 198 93c102 0 174 -49 214 -110c34 -52 48 -117 48 -200v-445zM524 909l-226 -125l-53 92l222 135z" />
    <glyph glyph-name="Ncommaaccent.alt01" unicode="&#xe042;" horiz-adv-x="732" 
d="M667 0h-137v427c0 128 -50 200 -157 200c-86 0 -165 -62 -165 -194v-433h-137v740h133v-78h3c53 85 158 93 198 93c102 0 174 -49 214 -110c34 -52 48 -117 48 -200v-445zM432 -140c0 -72 -57 -119 -132 -119v57c43 7 58 24 58 58h-59v92h133v-88z" />
    <glyph glyph-name="Ncaron.alt01" unicode="&#xe043;" horiz-adv-x="732" 
d="M667 0h-137v427c0 128 -50 200 -157 200c-86 0 -165 -62 -165 -194v-433h-137v740h133v-78h3c53 85 158 93 198 93c102 0 174 -49 214 -110c34 -52 48 -117 48 -200v-445zM566 951l-146 -138h-105l-148 138h145l56 -64l53 64h145z" />
    <glyph glyph-name="U.alt01" unicode="&#xe044;" horiz-adv-x="731" 
d="M661 0h-133v78h-3c-53 -85 -158 -93 -198 -93c-102 0 -174 49 -214 110c-34 52 -48 117 -48 200v445h137v-427c0 -128 50 -200 157 -200c86 0 165 62 165 194v433h137v-740z" />
    <glyph glyph-name="Uacute.alt01" unicode="&#xe045;" horiz-adv-x="731" 
d="M661 0h-133v78h-3c-53 -85 -158 -93 -198 -93c-102 0 -174 49 -214 110c-34 52 -48 117 -48 200v445h137v-427c0 -128 50 -200 157 -200c86 0 165 62 165 194v433h137v-740zM541 893l-226 -125l-53 92l222 135z" />
    <glyph glyph-name="Ugrave.alt01" unicode="&#xe046;" horiz-adv-x="731" 
d="M661 0h-133v78h-3c-53 -85 -158 -93 -198 -93c-102 0 -174 49 -214 110c-34 52 -48 117 -48 200v445h137v-427c0 -128 50 -200 157 -200c86 0 165 62 165 194v433h137v-740zM466 850l-53 -92l-226 125l57 102z" />
    <glyph glyph-name="Ucircumflex.alt01" unicode="&#xe047;" horiz-adv-x="731" 
d="M661 0h-133v78h-3c-53 -85 -158 -93 -198 -93c-102 0 -174 49 -214 110c-34 52 -48 117 -48 200v445h137v-427c0 -128 50 -200 157 -200c86 0 165 62 165 194v433h137v-740zM569 798h-131l-80 67l-80 -67h-133l170 154h88z" />
    <glyph glyph-name="Udieresis.alt01" unicode="&#xe048;" horiz-adv-x="731" 
d="M661 0h-133v78h-3c-53 -85 -158 -93 -198 -93c-102 0 -174 49 -214 110c-34 52 -48 117 -48 200v445h137v-427c0 -128 50 -200 157 -200c86 0 165 62 165 194v433h137v-740zM535 801h-126v142h126v-142zM319 801h-126v142h126v-142z" />
    <glyph glyph-name="Utilde.alt01" unicode="&#xe049;" horiz-adv-x="731" 
d="M661 0h-133v78h-3c-53 -85 -158 -93 -198 -93c-102 0 -174 49 -214 110c-34 52 -48 117 -48 200v445h137v-427c0 -128 50 -200 157 -200c86 0 165 62 165 194v433h137v-740zM562 853c-35 -28 -68 -47 -114 -47c-50 0 -95 27 -145 27c-30 0 -54 -7 -80 -20l-54 81
c33 25 74 43 116 43c51 0 97 -29 147 -29c28 0 53 8 76 23z" />
    <glyph glyph-name="Umacron.alt01" unicode="&#xe04a;" horiz-adv-x="731" 
d="M661 0h-133v78h-3c-53 -85 -158 -93 -198 -93c-102 0 -174 49 -214 110c-34 52 -48 117 -48 200v445h137v-427c0 -128 50 -200 157 -200c86 0 165 62 165 194v433h137v-740zM504 808h-277v111h277v-111z" />
    <glyph glyph-name="Ubreve.alt01" unicode="&#xe04b;" horiz-adv-x="731" 
d="M661 0h-133v78h-3c-53 -85 -158 -93 -198 -93c-102 0 -174 49 -214 110c-34 52 -48 117 -48 200v445h137v-427c0 -128 50 -200 157 -200c86 0 165 62 165 194v433h137v-740zM564 935c-15 -102 -106 -137 -199 -137c-92 0 -183 36 -198 137h108c20 -31 56 -40 90 -40
c35 0 71 8 91 40h108z" />
    <glyph glyph-name="Uhungarumlaut.alt01" unicode="&#xe04c;" horiz-adv-x="731" 
d="M661 0h-133v78h-3c-53 -85 -158 -93 -198 -93c-102 0 -174 49 -214 110c-34 52 -48 117 -48 200v445h137v-427c0 -128 50 -200 157 -200c86 0 165 62 165 194v433h137v-740zM641 930l-207 -150l-57 76l197 163zM399 930l-207 -150l-57 76l197 163z" />
    <glyph glyph-name="Uring.alt01" unicode="&#xe04d;" horiz-adv-x="731" 
d="M661 0h-133v78h-3c-53 -85 -158 -93 -198 -93c-102 0 -174 49 -214 110c-34 52 -48 117 -48 200v445h137v-427c0 -128 50 -200 157 -200c86 0 165 62 165 194v433h137v-740zM473 868c0 -59 -49 -107 -108 -107c-58 0 -107 49 -107 107c0 59 47 108 107 108
s108 -48 108 -108zM406 868c0 23 -18 41 -41 41s-40 -19 -40 -41s18 -40 40 -40s41 17 41 40z" />
    <glyph glyph-name="Uogonek.alt01" unicode="&#xe04e;" horiz-adv-x="731" 
d="M564 -204c-60 0 -115 32 -115 97c0 52 44 86 86 107h-7v78h-3c-53 -85 -158 -93 -198 -93c-102 0 -174 49 -214 110c-34 52 -48 117 -48 200v445h137v-427c0 -128 50 -200 157 -200c86 0 165 62 165 194v433h137v-740h-56c-26 -17 -64 -43 -64 -79c0 -29 24 -45 51 -45
c14 0 27 5 40 11v-78c-24 -9 -42 -13 -68 -13z" />
    <glyph glyph-name="V.alt02" unicode="&#xe04f;" horiz-adv-x="656" 
d="M711 740l-521 -740h-119v740h137v-487h2l332 487h169z" />
    <glyph glyph-name="V.alt01" unicode="&#xe050;" horiz-adv-x="655" 
d="M585 0h-119l-521 740h169l332 -487h2v487h137v-740z" />
    <glyph glyph-name="W.alt02" unicode="&#xe051;" horiz-adv-x="1125" 
d="M1180 740l-520 -740h-122v491h-2l-334 -491h-131v740h137v-504h2l343 504h122v-491h2l338 491h165z" />
    <glyph glyph-name="Wcircumflex.alt02" unicode="&#xe052;" horiz-adv-x="1125" 
d="M1180 740l-520 -740h-122v491h-2l-334 -491h-131v740h137v-504h2l343 504h122v-491h2l338 491h165zM813 801h-145l-53 64l-56 -64h-145l148 138h105z" />
    <glyph glyph-name="Wgrave.alt02" unicode="&#xe053;" horiz-adv-x="1125" 
d="M1180 740l-520 -740h-122v491h-2l-334 -491h-131v740h137v-504h2l343 504h122v-491h2l338 491h165zM746 856l-53 -92l-226 125l57 102z" />
    <glyph glyph-name="Wacute.alt02" unicode="&#xe054;" horiz-adv-x="1125" 
d="M1180 740l-520 -740h-122v491h-2l-334 -491h-131v740h137v-504h2l343 504h122v-491h2l338 491h165zM780 889l-226 -125l-53 92l222 135z" />
    <glyph glyph-name="Wdieresis.alt02" unicode="&#xe055;" horiz-adv-x="1125" 
d="M1180 740l-520 -740h-122v491h-2l-334 -491h-131v740h137v-504h2l343 504h122v-491h2l338 491h165zM785 799h-133v133h133v-133zM575 799h-134v133h134v-133z" />
    <glyph glyph-name="W.alt01" unicode="&#xe056;" horiz-adv-x="1124" 
d="M1054 0h-131l-334 491h-2v-491h-122l-520 740h165l338 -491h2v491h122l343 -504h2v504h137v-740z" />
    <glyph glyph-name="Wcircumflex.alt01" unicode="&#xe057;" horiz-adv-x="1124" 
d="M1054 0h-131l-334 491h-2v-491h-122l-520 740h165l338 -491h2v491h122l343 -504h2v504h137v-740zM712 801h-145l-53 64l-56 -64h-145l148 138h105z" />
    <glyph glyph-name="Wgrave.alt01" unicode="&#xe058;" horiz-adv-x="1124" 
d="M1054 0h-131l-334 491h-2v-491h-122l-520 740h165l338 -491h2v491h122l343 -504h2v504h137v-740zM621 856l-53 -92l-226 125l57 102z" />
    <glyph glyph-name="Wacute.alt01" unicode="&#xe059;" horiz-adv-x="1124" 
d="M1054 0h-131l-334 491h-2v-491h-122l-520 740h165l338 -491h2v491h122l343 -504h2v504h137v-740zM653 889l-226 -125l-53 92l222 135z" />
    <glyph glyph-name="Wdieresis.alt01" unicode="&#xe05a;" horiz-adv-x="1124" 
d="M1054 0h-131l-334 491h-2v-491h-122l-520 740h165l338 -491h2v491h122l343 -504h2v504h137v-740zM687 799h-133v133h133v-133zM477 799h-134v133h134v-133z" />
    <glyph glyph-name="c.alt01" unicode="&#xe05b;" horiz-adv-x="495" 
d="M465 14c-25 -16 -85 -32 -143 -32c-151 0 -285 113 -285 296c0 191 141 296 285 296c62 0 117 -18 143 -33v-152c-21 27 -67 63 -127 63c-111 0 -168 -77 -168 -174c0 -102 65 -174 167 -174c59 0 100 32 128 67v-157z" />
    <glyph glyph-name="ccedilla.alt01" unicode="&#xe05c;" horiz-adv-x="495" 
d="M465 14c-25 -16 -83 -32 -140 -32h-9l-16 -37c7 1 15 2 25 2c48 0 93 -35 93 -100c0 -64 -46 -98 -100 -98c-69 0 -100 58 -100 87h53c4 -22 23 -37 47 -37c27 0 46 20 46 48c0 27 -20 50 -47 50c-15 0 -33 -4 -43 -22l-49 19l41 93c-127 25 -229 131 -229 291
c0 191 141 296 285 296c62 0 117 -18 143 -33v-152c-21 27 -67 63 -127 63c-111 0 -168 -77 -168 -174c0 -102 65 -174 167 -174c59 0 100 32 128 67v-157z" />
    <glyph glyph-name="cacute.alt01" unicode="&#xe05d;" horiz-adv-x="495" 
d="M465 14c-25 -16 -85 -32 -143 -32c-151 0 -285 113 -285 296c0 191 141 296 285 296c62 0 117 -18 143 -33v-152c-21 27 -67 63 -127 63c-111 0 -168 -77 -168 -174c0 -102 65 -174 167 -174c59 0 100 32 128 67v-157zM448 719l-226 -125l-53 92l222 135z" />
    <glyph glyph-name="ccircumflex.alt01" unicode="&#xe05e;" horiz-adv-x="495" 
d="M465 14c-25 -16 -85 -32 -143 -32c-151 0 -285 113 -285 296c0 191 141 296 285 296c62 0 117 -18 143 -33v-152c-21 27 -67 63 -127 63c-111 0 -168 -77 -168 -174c0 -102 65 -174 167 -174c59 0 100 32 128 67v-157zM490 631h-145l-53 64l-56 -64h-145l148 138h105z
" />
    <glyph glyph-name="cdotaccent.alt01" unicode="&#xe05f;" horiz-adv-x="495" 
d="M465 14c-25 -16 -85 -32 -143 -32c-151 0 -285 113 -285 296c0 191 141 296 285 296c62 0 117 -18 143 -33v-152c-21 27 -67 63 -127 63c-111 0 -168 -77 -168 -174c0 -102 65 -174 167 -174c59 0 100 32 128 67v-157zM369 636h-133v133h133v-133z" />
    <glyph glyph-name="ccaron.alt01" unicode="&#xe060;" horiz-adv-x="495" 
d="M465 14c-25 -16 -85 -32 -143 -32c-151 0 -285 113 -285 296c0 191 141 296 285 296c62 0 117 -18 143 -33v-152c-21 27 -67 63 -127 63c-111 0 -168 -77 -168 -174c0 -102 65 -174 167 -174c59 0 100 32 128 67v-157zM490 761l-146 -138h-105l-148 138h145l56 -64l53 64
h145z" />
    <glyph glyph-name="e.alt01" unicode="&#xe061;" horiz-adv-x="610" 
d="M580 411l-347 -279c26 -20 63 -28 92 -28c70 0 116 38 155 81v-154c-40 -31 -100 -49 -158 -49c-152 0 -291 119 -291 296c0 181 137 299 291 299c146 0 232 -103 258 -166zM420 420c-19 21 -57 35 -92 35c-102 0 -166 -83 -166 -169c0 -38 3 -43 8 -67z" />
    <glyph glyph-name="eacute.alt01" unicode="&#xe062;" horiz-adv-x="610" 
d="M580 411l-347 -279c26 -20 63 -28 92 -28c70 0 116 38 155 81v-154c-40 -31 -100 -49 -158 -49c-152 0 -291 119 -291 296c0 181 137 299 291 299c146 0 232 -103 258 -166zM420 420c-19 21 -57 35 -92 35c-102 0 -166 -83 -166 -169c0 -38 3 -43 8 -67zM452 719
l-226 -125l-53 92l222 135z" />
    <glyph glyph-name="egrave.alt01" unicode="&#xe063;" horiz-adv-x="610" 
d="M580 411l-347 -279c26 -20 63 -28 92 -28c70 0 116 38 155 81v-154c-40 -31 -100 -49 -158 -49c-152 0 -291 119 -291 296c0 181 137 299 291 299c146 0 232 -103 258 -166zM420 420c-19 21 -57 35 -92 35c-102 0 -166 -83 -166 -169c0 -38 3 -43 8 -67zM418 695l-53 -92
l-226 125l57 102z" />
    <glyph glyph-name="ecircumflex.alt01" unicode="&#xe064;" horiz-adv-x="610" 
d="M580 411l-347 -279c26 -20 63 -28 92 -28c70 0 116 38 155 81v-154c-40 -31 -100 -49 -158 -49c-152 0 -291 119 -291 296c0 181 137 299 291 299c146 0 232 -103 258 -166zM420 420c-19 21 -57 35 -92 35c-102 0 -166 -83 -166 -169c0 -38 3 -43 8 -67zM519 632h-131
l-80 67l-79 -67h-133l170 154h88z" />
    <glyph glyph-name="edieresis.alt01" unicode="&#xe065;" horiz-adv-x="610" 
d="M580 411l-347 -279c26 -20 63 -28 92 -28c70 0 116 38 155 81v-154c-40 -31 -100 -49 -158 -49c-152 0 -291 119 -291 296c0 181 137 299 291 299c146 0 232 -103 258 -166zM420 420c-19 21 -57 35 -92 35c-102 0 -166 -83 -166 -169c0 -38 3 -43 8 -67zM473 635h-127
v142h127v-142zM256 635h-126v142h126v-142z" />
    <glyph glyph-name="emacron.alt01" unicode="&#xe066;" horiz-adv-x="610" 
d="M580 411l-347 -279c26 -20 63 -28 92 -28c70 0 116 38 155 81v-154c-40 -31 -100 -49 -158 -49c-152 0 -291 119 -291 296c0 181 137 299 291 299c146 0 232 -103 258 -166zM420 420c-19 21 -57 35 -92 35c-102 0 -166 -83 -166 -169c0 -38 3 -43 8 -67zM444 638h-277
v111h277v-111z" />
    <glyph glyph-name="ebreve.alt01" unicode="&#xe067;" horiz-adv-x="610" 
d="M580 411l-347 -279c26 -20 63 -28 92 -28c70 0 116 38 155 81v-154c-40 -31 -100 -49 -158 -49c-152 0 -291 119 -291 296c0 181 137 299 291 299c146 0 232 -103 258 -166zM420 420c-19 21 -57 35 -92 35c-102 0 -166 -83 -166 -169c0 -38 3 -43 8 -67zM504 765
c-15 -102 -106 -137 -199 -137c-92 0 -183 36 -198 137h108c20 -31 56 -40 90 -40c35 0 71 8 91 40h108z" />
    <glyph glyph-name="edotaccent.alt01" unicode="&#xe068;" horiz-adv-x="610" 
d="M580 411l-347 -279c26 -20 63 -28 92 -28c70 0 116 38 155 81v-154c-40 -31 -100 -49 -158 -49c-152 0 -291 119 -291 296c0 181 137 299 291 299c146 0 232 -103 258 -166zM420 420c-19 21 -57 35 -92 35c-102 0 -166 -83 -166 -169c0 -38 3 -43 8 -67zM372 636h-133
v133h133v-133z" />
    <glyph glyph-name="eogonek.alt01" unicode="&#xe069;" horiz-adv-x="610" 
d="M381 -204c-60 0 -115 32 -115 97c0 39 25 68 55 89c-152 1 -290 119 -290 296c0 181 137 299 291 299c146 0 232 -103 258 -166l-347 -279c26 -20 63 -28 92 -28c70 0 116 38 155 81v-154c-17 -13 -36 -23 -57 -33c-27 -13 -65 -41 -65 -77c0 -29 24 -45 51 -45
c14 0 27 5 40 11v-78c-24 -9 -42 -13 -68 -13zM420 420c-19 21 -57 35 -92 35c-102 0 -166 -83 -166 -169c0 -38 3 -43 8 -67z" />
    <glyph glyph-name="ecaron.alt01" unicode="&#xe06a;" horiz-adv-x="610" 
d="M580 411l-347 -279c26 -20 63 -28 92 -28c70 0 116 38 155 81v-154c-40 -31 -100 -49 -158 -49c-152 0 -291 119 -291 296c0 181 137 299 291 299c146 0 232 -103 258 -166zM420 420c-19 21 -57 35 -92 35c-102 0 -166 -83 -166 -169c0 -38 3 -43 8 -67zM505 761
l-146 -138h-105l-148 138h145l56 -64l53 64h145z" />
    <glyph glyph-name="f.alt01" unicode="&#xe06b;" horiz-adv-x="248" 
d="M280 609c-43 0 -59 -5 -71 -20c-7 -9 -14 -27 -14 -45v-544h-133v437h-47v118h47c8 104 82 185 181 185h37v-131z" />
    <glyph glyph-name="f.alt02" unicode="&#xe06c;" horiz-adv-x="272" 
d="M265 437h-78v-437h-133v549c0 94 76 191 174 191h37v-131c-43 0 -53 -5 -65 -20c-7 -9 -12 -24 -13 -34h78v-118z" />
    <glyph glyph-name="k.alt01" unicode="&#xe06d;" horiz-adv-x="595" 
d="M586 0h-163l-147 203l-63 -80v-123h-133v740h133v-446h2l182 261h161l-196 -245z" />
    <glyph glyph-name="kcommaaccent.alt01" unicode="&#xe06e;" horiz-adv-x="595" 
d="M586 0h-163l-147 203l-63 -80v-123h-133v740h133v-446h2l182 261h161l-196 -245zM364 -140c0 -72 -57 -119 -132 -119v57c43 7 58 24 58 58h-59v92h133v-88z" />
    <glyph glyph-name="k.alt02" unicode="&#xe06f;" horiz-adv-x="574" 
d="M215 287l171 268h153l-184 -262l210 -293h-168zM213 740v-740h-133v740h133z" />
    <glyph glyph-name="kcommaaccent.alt02" unicode="&#xe070;" horiz-adv-x="574" 
d="M215 287l171 268h153l-184 -262l210 -293h-168zM213 740v-740h-133v740h133zM353 -140c0 -72 -57 -119 -132 -119v57c43 7 58 24 58 58h-59v92h133v-88z" />
    <glyph glyph-name="t.alt01" unicode="&#xe071;" horiz-adv-x="267" 
d="M234 0h-133v437h-80v118h80v185h133v-740z" />
    <glyph glyph-name="tcaron.alt01" unicode="&#xe072;" horiz-adv-x="411" 
d="M420 652c0 -72 -57 -119 -132 -119v57c43 7 58 24 58 58h-59v92h133v-88zM234 0h-133v437h-80v118h80v185h133v-740z" />
    <glyph glyph-name="tcedilla.alt01" unicode="&#xe073;" horiz-adv-x="267" 
d="M234 0h-133v437h-80v118h80v185h133v-740zM234 -140c0 -72 -57 -119 -132 -119v57c43 7 58 24 58 58h-59v92h133v-88z" />
    <glyph glyph-name="tcommaaccent.alt01" unicode="&#xe074;" horiz-adv-x="267" 
d="M234 0h-133v437h-80v118h80v185h133v-740zM234 -140c0 -72 -57 -119 -132 -119v57c43 7 58 24 58 58h-59v92h133v-88z" />
    <glyph glyph-name="t.alt02" unicode="&#xe075;" horiz-adv-x="287" 
d="M266 437h-80v-437h-133v740h133v-185h80v-118z" />
    <glyph glyph-name="tcaron.alt02" unicode="&#xe076;" horiz-adv-x="363" 
d="M266 437h-80v-437h-133v740h133v-185h80v-118zM372 727c0 -72 -57 -119 -132 -119v57c43 7 58 24 58 58h-59v92h133v-88z" />
    <glyph glyph-name="tcedilla.alt02" unicode="&#xe077;" horiz-adv-x="287" 
d="M266 437h-80v-437h-133v740h133v-185h80v-118zM186 -140c0 -72 -57 -119 -132 -119v57c43 7 58 24 58 58h-59v92h133v-88z" />
    <glyph glyph-name="tcommaaccent.alt02" unicode="&#xe078;" horiz-adv-x="287" 
d="M266 437h-80v-437h-133v740h133v-185h80v-118zM186 -140c0 -72 -57 -119 -132 -119v57c43 7 58 24 58 58h-59v92h133v-88z" />
    <glyph glyph-name="v.alt02" unicode="&#xe079;" horiz-adv-x="523" 
d="M565 555l-396 -555h-116v555h133v-315h2l219 315h158z" />
    <glyph glyph-name="v.alt01" unicode="&#xe07a;" horiz-adv-x="523" 
d="M470 0h-116l-396 555h158l219 -315h2v315h133v-555z" />
    <glyph glyph-name="w.alt02" unicode="&#xe07b;" horiz-adv-x="870" 
d="M912 555l-396 -555h-116v324l-231 -324h-116v555h133v-316h2l219 316h126v-315h2l219 315h158z" />
    <glyph glyph-name="wcircumflex.alt02" unicode="&#xe07c;" horiz-adv-x="870" 
d="M912 555l-396 -555h-116v324l-231 -324h-116v555h133v-316h2l219 316h126v-315h2l219 315h158zM668 631h-145l-53 64l-56 -64h-145l148 138h105z" />
    <glyph glyph-name="wgrave.alt02" unicode="&#xe07d;" horiz-adv-x="870" 
d="M912 555l-396 -555h-116v324l-231 -324h-116v555h133v-316h2l219 316h126v-315h2l219 315h158zM614 686l-53 -92l-226 125l57 102z" />
    <glyph glyph-name="wacute.alt02" unicode="&#xe07e;" horiz-adv-x="870" 
d="M912 555l-396 -555h-116v324l-231 -324h-116v555h133v-316h2l219 316h126v-315h2l219 315h158zM640 719l-226 -125l-53 92l222 135z" />
    <glyph glyph-name="wdieresis.alt02" unicode="&#xe07f;" horiz-adv-x="870" 
d="M912 555l-396 -555h-116v324l-231 -324h-116v555h133v-316h2l219 316h126v-315h2l219 315h158zM640 629h-133v133h133v-133zM430 629h-134v133h134v-133z" />
    <glyph glyph-name="w.alt01" unicode="&#xe080;" horiz-adv-x="870" 
d="M817 0h-116l-231 324v-324h-116l-396 555h158l219 -315h2v315h126l219 -316h2v316h133v-555z" />
    <glyph glyph-name="wcircumflex.alt01" unicode="&#xe081;" horiz-adv-x="870" 
d="M817 0h-116l-231 324v-324h-116l-396 555h158l219 -315h2v315h126l219 -316h2v316h133v-555zM598 631h-145l-53 64l-56 -64h-145l148 138h105z" />
    <glyph glyph-name="wgrave.alt01" unicode="&#xe082;" horiz-adv-x="870" 
d="M817 0h-116l-231 324v-324h-116l-396 555h158l219 -315h2v315h126l219 -316h2v316h133v-555zM494 686l-53 -92l-226 125l57 102z" />
    <glyph glyph-name="wacute.alt01" unicode="&#xe083;" horiz-adv-x="870" 
d="M817 0h-116l-231 324v-324h-116l-396 555h158l219 -315h2v315h126l219 -316h2v316h133v-555zM517 719l-226 -125l-53 92l222 135z" />
    <glyph glyph-name="wdieresis.alt01" unicode="&#xe084;" horiz-adv-x="870" 
d="M817 0h-116l-231 324v-324h-116l-396 555h158l219 -315h2v315h126l219 -316h2v316h133v-555zM552 629h-133v133h133v-133zM342 629h-134v133h134v-133z" />
    <glyph glyph-name="y.alt01" unicode="&#xe085;" horiz-adv-x="532" 
d="M574 555l-515 -740h-158l152 217v523h133v-340h2l228 340h158z" />
    <glyph glyph-name="yacute.alt01" unicode="&#xe086;" horiz-adv-x="532" 
d="M574 555l-515 -740h-158l152 217v523h133v-340h2l228 340h158zM508 719l-226 -125l-53 92l222 135z" />
    <glyph glyph-name="ydieresis.alt01" unicode="&#xe087;" horiz-adv-x="532" 
d="M574 555l-515 -740h-158l152 217v523h133v-340h2l228 340h158zM469 635h-127v142h127v-142zM252 635h-126v142h126v-142z" />
    <glyph glyph-name="ycircumflex.alt01" unicode="&#xe088;" horiz-adv-x="532" 
d="M574 555l-515 -740h-158l152 217v523h133v-340h2l228 340h158zM496 631h-145l-53 64l-56 -64h-145l148 138h105z" />
    <glyph glyph-name="ygrave.alt01" unicode="&#xe089;" horiz-adv-x="532" 
d="M574 555l-515 -740h-158l152 217v523h133v-340h2l228 340h158zM431 686l-53 -92l-226 125l57 102z" />
    <glyph glyph-name="C_A" unicode="&#xe08a;" horiz-adv-x="1012" 
d="M942 0h-137v247h-172l-91 -119c43 12 71 40 96 78h153c-41 -92 -155 -221 -362 -221c-226 0 -391 184 -391 387c0 206 163 383 383 383c115 0 210 -31 291 -107l-81 -109c-46 47 -108 88 -209 88c-142 0 -247 -116 -247 -255c0 -124 90 -230 202 -255l451 623h114v-740z
M805 364v132h-2l-90 -132h92z" />
    <glyph glyph-name="C_Aacute" unicode="&#xe08b;" horiz-adv-x="1012" 
d="M942 0h-137v247h-172l-91 -119c43 12 71 40 96 78h153c-41 -92 -155 -221 -362 -221c-226 0 -391 184 -391 387c0 206 163 383 383 383c115 0 210 -31 291 -107l-81 -109c-46 47 -108 88 -209 88c-142 0 -247 -116 -247 -255c0 -124 90 -230 202 -255l451 623h114v-740z
M805 364v132h-2l-90 -132h92zM1045 889l-226 -125l-53 92l222 135z" />
    <glyph glyph-name="C_Agrave" unicode="&#xe08c;" horiz-adv-x="1012" 
d="M942 0h-137v247h-172l-91 -119c43 12 71 40 96 78h153c-41 -92 -155 -221 -362 -221c-226 0 -391 184 -391 387c0 206 163 383 383 383c115 0 210 -31 291 -107l-81 -109c-46 47 -108 88 -209 88c-142 0 -247 -116 -247 -255c0 -124 90 -230 202 -255l451 623h114v-740z
M805 364v132h-2l-90 -132h92zM985 856l-53 -92l-226 125l57 102z" />
    <glyph glyph-name="C_Acircumflex" unicode="&#xe08d;" horiz-adv-x="1012" 
d="M942 0h-137v247h-172l-91 -119c43 12 71 40 96 78h153c-41 -92 -155 -221 -362 -221c-226 0 -391 184 -391 387c0 206 163 383 383 383c115 0 210 -31 291 -107l-81 -109c-46 47 -108 88 -209 88c-142 0 -247 -116 -247 -255c0 -124 90 -230 202 -255l451 623h114v-740z
M805 364v132h-2l-90 -132h92zM1066 801h-145l-53 64l-56 -64h-145l148 138h105z" />
    <glyph glyph-name="C_Adieresis" unicode="&#xe08e;" horiz-adv-x="1012" 
d="M942 0h-137v247h-172l-91 -119c43 12 71 40 96 78h153c-41 -92 -155 -221 -362 -221c-226 0 -391 184 -391 387c0 206 163 383 383 383c115 0 210 -31 291 -107l-81 -109c-46 47 -108 88 -209 88c-142 0 -247 -116 -247 -255c0 -124 90 -230 202 -255l451 623h114v-740z
M805 364v132h-2l-90 -132h92zM1049 799h-133v133h133v-133zM839 799h-134v133h134v-133z" />
    <glyph glyph-name="C_Atilde" unicode="&#xe08f;" horiz-adv-x="1012" 
d="M942 0h-137v247h-172l-91 -119c43 12 71 40 96 78h153c-41 -92 -155 -221 -362 -221c-226 0 -391 184 -391 387c0 206 163 383 383 383c115 0 210 -31 291 -107l-81 -109c-46 47 -108 88 -209 88c-142 0 -247 -116 -247 -255c0 -124 90 -230 202 -255l451 623h114v-740z
M805 364v132h-2l-90 -132h92zM1063 853c-35 -28 -68 -47 -114 -47c-50 0 -95 27 -145 27c-30 0 -54 -7 -80 -20l-54 81c33 25 74 43 116 43c51 0 97 -29 147 -29c28 0 53 8 76 23z" />
    <glyph glyph-name="C_Amacron" unicode="&#xe090;" horiz-adv-x="1012" 
d="M942 0h-137v247h-172l-91 -119c43 12 71 40 96 78h153c-41 -92 -155 -221 -362 -221c-226 0 -391 184 -391 387c0 206 163 383 383 383c115 0 210 -31 291 -107l-81 -109c-46 47 -108 88 -209 88c-142 0 -247 -116 -247 -255c0 -124 90 -230 202 -255l451 623h114v-740z
M805 364v132h-2l-90 -132h92zM1005 808h-277v111h277v-111z" />
    <glyph glyph-name="C_Abreve" unicode="&#xe091;" horiz-adv-x="1012" 
d="M942 0h-137v247h-172l-91 -119c43 12 71 40 96 78h153c-41 -92 -155 -221 -362 -221c-226 0 -391 184 -391 387c0 206 163 383 383 383c115 0 210 -31 291 -107l-81 -109c-46 47 -108 88 -209 88c-142 0 -247 -116 -247 -255c0 -124 90 -230 202 -255l451 623h114v-740z
M805 364v132h-2l-90 -132h92zM1075 935c-15 -102 -106 -137 -199 -137c-92 0 -183 36 -198 137h108c20 -31 56 -40 90 -40c35 0 71 8 91 40h108z" />
    <glyph glyph-name="C_Aogonek" unicode="&#xe092;" horiz-adv-x="1012" 
d="M942 0h-67c-26 -17 -64 -43 -64 -79c0 -29 24 -45 51 -45c14 0 27 5 40 11v-78c-24 -9 -42 -13 -68 -13c-60 0 -115 32 -115 97c0 52 44 86 86 107v247h-172l-91 -119c43 12 71 40 96 78h153c-41 -92 -155 -221 -362 -221c-226 0 -391 184 -391 387
c0 206 163 383 383 383c115 0 210 -31 291 -107l-81 -109c-46 47 -108 88 -209 88c-142 0 -247 -116 -247 -255c0 -124 90 -230 202 -255l451 623h114v-740zM805 364v132h-2l-90 -132h92z" />
    <glyph glyph-name="Ccedilla_A" unicode="&#xe093;" horiz-adv-x="1012" 
d="M942 0h-137v247h-172l-91 -119c43 12 71 40 96 78h153c-41 -92 -155 -221 -362 -221c-6 0 -12 0 -18 1l-18 -41c8 1 17 2 25 2c57 0 93 -45 93 -100c0 -60 -41 -98 -100 -98c-46 0 -100 37 -100 87h53c4 -23 24 -37 47 -37c28 0 46 21 46 48c0 26 -20 50 -47 50
c-18 0 -34 -6 -43 -22l-49 19l42 97c-190 32 -322 199 -322 381c0 206 163 383 383 383c115 0 210 -31 291 -107l-81 -109c-46 47 -108 88 -209 88c-142 0 -247 -116 -247 -255c0 -124 90 -230 202 -255l451 623h114v-740zM805 364v132h-2l-90 -132h92z" />
    <glyph glyph-name="Ccedilla_Aacute" unicode="&#xe094;" horiz-adv-x="1012" 
d="M942 0h-137v247h-172l-91 -119c43 12 71 40 96 78h153c-41 -92 -155 -221 -362 -221c-6 0 -12 0 -18 1l-18 -41c8 1 17 2 25 2c57 0 93 -45 93 -100c0 -60 -41 -98 -100 -98c-46 0 -100 37 -100 87h53c4 -23 24 -37 47 -37c28 0 46 21 46 48c0 26 -20 50 -47 50
c-18 0 -34 -6 -43 -22l-49 19l42 97c-190 32 -322 199 -322 381c0 206 163 383 383 383c115 0 210 -31 291 -107l-81 -109c-46 47 -108 88 -209 88c-142 0 -247 -116 -247 -255c0 -124 90 -230 202 -255l451 623h114v-740zM805 364v132h-2l-90 -132h92zM1045 889l-226 -125
l-53 92l222 135z" />
    <glyph glyph-name="Cacute_A" unicode="&#xe095;" horiz-adv-x="1012" 
d="M942 0h-137v247h-172l-91 -119c43 12 71 40 96 78h153c-41 -92 -155 -221 -362 -221c-226 0 -391 184 -391 387c0 206 163 383 383 383c115 0 210 -31 291 -107l-81 -109c-46 47 -108 88 -209 88c-142 0 -247 -116 -247 -255c0 -124 90 -230 202 -255l451 623h114v-740z
M805 364v132h-2l-90 -132h92zM548 889l-226 -125l-53 92l222 135z" />
    <glyph glyph-name="Cacute_Aogonek" unicode="&#xe096;" horiz-adv-x="1012" 
d="M942 0h-67c-26 -17 -64 -43 -64 -79c0 -29 24 -45 51 -45c14 0 27 5 40 11v-78c-24 -9 -42 -13 -68 -13c-60 0 -115 32 -115 97c0 52 44 86 86 107v247h-172l-91 -119c43 12 71 40 96 78h153c-41 -92 -155 -221 -362 -221c-226 0 -391 184 -391 387
c0 206 163 383 383 383c115 0 210 -31 291 -107l-81 -109c-46 47 -108 88 -209 88c-142 0 -247 -116 -247 -255c0 -124 90 -230 202 -255l451 623h114v-740zM805 364v132h-2l-90 -132h92zM548 889l-226 -125l-53 92l222 135z" />
    <glyph glyph-name="Ccircumflex_A" unicode="&#xe097;" horiz-adv-x="1012" 
d="M942 0h-137v247h-172l-91 -119c43 12 71 40 96 78h153c-41 -92 -155 -221 -362 -221c-226 0 -391 184 -391 387c0 206 163 383 383 383c115 0 210 -31 291 -107l-81 -109c-46 47 -108 88 -209 88c-142 0 -247 -116 -247 -255c0 -124 90 -230 202 -255l451 623h114v-740z
M805 364v132h-2l-90 -132h92zM619 801h-145l-53 64l-56 -64h-145l148 138h105z" />
    <glyph glyph-name="Ccircumflex_Amacron" unicode="&#xe098;" horiz-adv-x="1012" 
d="M942 0h-137v247h-172l-91 -119c43 12 71 40 96 78h153c-41 -92 -155 -221 -362 -221c-226 0 -391 184 -391 387c0 206 163 383 383 383c115 0 210 -31 291 -107l-81 -109c-46 47 -108 88 -209 88c-142 0 -247 -116 -247 -255c0 -124 90 -230 202 -255l451 623h114v-740z
M805 364v132h-2l-90 -132h92zM619 801h-145l-53 64l-56 -64h-145l148 138h105zM1005 808h-277v111h277v-111z" />
    <glyph glyph-name="Ccircumflex_Abreve" unicode="&#xe099;" horiz-adv-x="1012" 
d="M942 0h-137v247h-172l-91 -119c43 12 71 40 96 78h153c-41 -92 -155 -221 -362 -221c-226 0 -391 184 -391 387c0 206 163 383 383 383c115 0 210 -31 291 -107l-81 -109c-46 47 -108 88 -209 88c-142 0 -247 -116 -247 -255c0 -124 90 -230 202 -255l451 623h114v-740z
M805 364v132h-2l-90 -132h92zM619 801h-145l-53 64l-56 -64h-145l148 138h105zM1075 935c-15 -102 -106 -137 -199 -137c-92 0 -183 36 -198 137h108c20 -31 56 -40 90 -40c35 0 71 8 91 40h108z" />
    <glyph glyph-name="Cdotaccent_A" unicode="&#xe09a;" horiz-adv-x="1012" 
d="M942 0h-137v247h-172l-91 -119c43 12 71 40 96 78h153c-41 -92 -155 -221 -362 -221c-226 0 -391 184 -391 387c0 206 163 383 383 383c115 0 210 -31 291 -107l-81 -109c-46 47 -108 88 -209 88c-142 0 -247 -116 -247 -255c0 -124 90 -230 202 -255l451 623h114v-740z
M805 364v132h-2l-90 -132h92zM487 806h-133v133h133v-133z" />
    <glyph glyph-name="Cdotaccent_Agrave" unicode="&#xe09b;" horiz-adv-x="1012" 
d="M942 0h-137v247h-172l-91 -119c43 12 71 40 96 78h153c-41 -92 -155 -221 -362 -221c-226 0 -391 184 -391 387c0 206 163 383 383 383c115 0 210 -31 291 -107l-81 -109c-46 47 -108 88 -209 88c-142 0 -247 -116 -247 -255c0 -124 90 -230 202 -255l451 623h114v-740z
M805 364v132h-2l-90 -132h92zM487 806h-133v133h133v-133zM985 856l-53 -92l-226 125l57 102z" />
    <glyph glyph-name="Ccaron_A" unicode="&#xe09c;" horiz-adv-x="1012" 
d="M942 0h-137v247h-172l-91 -119c43 12 71 40 96 78h153c-41 -92 -155 -221 -362 -221c-226 0 -391 184 -391 387c0 206 163 383 383 383c115 0 210 -31 291 -107l-81 -109c-46 47 -108 88 -209 88c-142 0 -247 -116 -247 -255c0 -124 90 -230 202 -255l451 623h114v-740z
M805 364v132h-2l-90 -132h92zM619 941l-146 -138h-105l-148 138h145l56 -64l53 64h145z" />
    <glyph glyph-name="Ccaron_Aacute" unicode="&#xe09d;" horiz-adv-x="1012" 
d="M942 0h-137v247h-172l-91 -119c43 12 71 40 96 78h153c-41 -92 -155 -221 -362 -221c-226 0 -391 184 -391 387c0 206 163 383 383 383c115 0 210 -31 291 -107l-81 -109c-46 47 -108 88 -209 88c-142 0 -247 -116 -247 -255c0 -124 90 -230 202 -255l451 623h114v-740z
M805 364v132h-2l-90 -132h92zM619 941l-146 -138h-105l-148 138h145l56 -64l53 64h145zM1045 889l-226 -125l-53 92l222 135z" />
    <glyph glyph-name="Ccaron_Adieresis" unicode="&#xe09e;" horiz-adv-x="1012" 
d="M942 0h-137v247h-172l-91 -119c43 12 71 40 96 78h153c-41 -92 -155 -221 -362 -221c-226 0 -391 184 -391 387c0 206 163 383 383 383c115 0 210 -31 291 -107l-81 -109c-46 47 -108 88 -209 88c-142 0 -247 -116 -247 -255c0 -124 90 -230 202 -255l451 623h114v-740z
M805 364v132h-2l-90 -132h92zM619 941l-146 -138h-105l-148 138h145l56 -64l53 64h145zM1049 809h-133v133h133v-133zM839 809h-134v133h134v-133z" />
    <glyph glyph-name="Ccaron_Amacron" unicode="&#xe09f;" horiz-adv-x="1012" 
d="M942 0h-137v247h-172l-91 -119c43 12 71 40 96 78h153c-41 -92 -155 -221 -362 -221c-226 0 -391 184 -391 387c0 206 163 383 383 383c115 0 210 -31 291 -107l-81 -109c-46 47 -108 88 -209 88c-142 0 -247 -116 -247 -255c0 -124 90 -230 202 -255l451 623h114v-740z
M805 364v132h-2l-90 -132h92zM619 941l-146 -138h-105l-148 138h145l56 -64l53 64h145zM1005 808h-277v111h277v-111z" />
    <glyph glyph-name="Ccaron_Abreve" unicode="&#xe0a0;" horiz-adv-x="1012" 
d="M942 0h-137v247h-172l-91 -119c43 12 71 40 96 78h153c-41 -92 -155 -221 -362 -221c-226 0 -391 184 -391 387c0 206 163 383 383 383c115 0 210 -31 291 -107l-81 -109c-46 47 -108 88 -209 88c-142 0 -247 -116 -247 -255c0 -124 90 -230 202 -255l451 623h114v-740z
M805 364v132h-2l-90 -132h92zM619 941l-146 -138h-105l-148 138h145l56 -64l53 64h145zM1075 935c-15 -102 -106 -137 -199 -137c-92 0 -183 36 -198 137h108c20 -31 56 -40 90 -40c35 0 71 8 91 40h108z" />
    <glyph glyph-name="C_O.alt01" unicode="&#xe0a1;" horiz-adv-x="780" 
d="M641 370c0 -126 -100 -235 -224 -235s-224 105 -224 235c0 127 102 235 224 235c124 0 224 -106 224 -235zM766 529h-156c-35 43 -97 98 -194 98c-139 0 -245 -123 -245 -256c0 -143 110 -258 245 -258c99 0 164 60 190 93h156c-63 -148 -214 -221 -345 -221
c-218 0 -383 181 -383 387s163 383 383 383c161 0 293 -97 349 -226zM522 368c0 65 -47 120 -105 120c-64 0 -105 -55 -105 -119c0 -65 44 -119 105 -119c60 0 105 55 105 118z" />
    <glyph glyph-name="C_O" unicode="&#xe0a2;" horiz-adv-x="1181" 
d="M1148 368c0 -212 -174 -383 -387 -383c-62 0 -121 14 -173 40c-52 -26 -110 -40 -168 -40c-214 0 -386 179 -386 388c0 204 169 382 383 382c54 0 115 -12 172 -40c52 26 110 40 172 40c210 0 387 -168 387 -387zM1011 369c0 142 -111 258 -250 258c-18 0 -35 -2 -52 -6
c22 -26 42 -57 57 -92h-156c-8 9 -15 17 -24 25c-46 -47 -75 -113 -75 -185c0 -70 28 -134 74 -182c7 7 13 13 18 19h159c-14 -32 -32 -61 -54 -87c17 -4 35 -6 53 -6c141 0 250 119 250 256zM467 118c-58 67 -93 155 -93 250c0 98 35 186 93 253c-17 4 -35 6 -55 6
c-120 0 -241 -108 -241 -256c0 -139 115 -258 246 -258c18 0 35 2 50 5z" />
    <glyph glyph-name="C_Oacute" unicode="&#xe0a3;" horiz-adv-x="1181" 
d="M1148 368c0 -212 -174 -383 -387 -383c-62 0 -121 14 -173 40c-52 -26 -110 -40 -168 -40c-214 0 -386 179 -386 388c0 204 169 382 383 382c54 0 115 -12 172 -40c52 26 110 40 172 40c210 0 387 -168 387 -387zM1011 369c0 142 -111 258 -250 258c-18 0 -35 -2 -52 -6
c22 -26 42 -57 57 -92h-156c-8 9 -15 17 -24 25c-46 -47 -75 -113 -75 -185c0 -70 28 -134 74 -182c7 7 13 13 18 19h159c-14 -32 -32 -61 -54 -87c17 -4 35 -6 53 -6c141 0 250 119 250 256zM467 118c-58 67 -93 155 -93 250c0 98 35 186 93 253c-17 4 -35 6 -55 6
c-120 0 -241 -108 -241 -256c0 -139 115 -258 246 -258c18 0 35 2 50 5zM919 889l-226 -125l-53 92l222 135z" />
    <glyph glyph-name="C_Ograve" unicode="&#xe0a4;" horiz-adv-x="1181" 
d="M1148 368c0 -212 -174 -383 -387 -383c-62 0 -121 14 -173 40c-52 -26 -110 -40 -168 -40c-214 0 -386 179 -386 388c0 204 169 382 383 382c54 0 115 -12 172 -40c52 26 110 40 172 40c210 0 387 -168 387 -387zM1011 369c0 142 -111 258 -250 258c-18 0 -35 -2 -52 -6
c22 -26 42 -57 57 -92h-156c-8 9 -15 17 -24 25c-46 -47 -75 -113 -75 -185c0 -70 28 -134 74 -182c7 7 13 13 18 19h159c-14 -32 -32 -61 -54 -87c17 -4 35 -6 53 -6c141 0 250 119 250 256zM467 118c-58 67 -93 155 -93 250c0 98 35 186 93 253c-17 4 -35 6 -55 6
c-120 0 -241 -108 -241 -256c0 -139 115 -258 246 -258c18 0 35 2 50 5zM879 856l-53 -92l-226 125l57 102z" />
    <glyph glyph-name="C_Ocircumflex" unicode="&#xe0a5;" horiz-adv-x="1181" 
d="M1148 368c0 -212 -174 -383 -387 -383c-62 0 -121 14 -173 40c-52 -26 -110 -40 -168 -40c-214 0 -386 179 -386 388c0 204 169 382 383 382c54 0 115 -12 172 -40c52 26 110 40 172 40c210 0 387 -168 387 -387zM1011 369c0 142 -111 258 -250 258c-18 0 -35 -2 -52 -6
c22 -26 42 -57 57 -92h-156c-8 9 -15 17 -24 25c-46 -47 -75 -113 -75 -185c0 -70 28 -134 74 -182c7 7 13 13 18 19h159c-14 -32 -32 -61 -54 -87c17 -4 35 -6 53 -6c141 0 250 119 250 256zM467 118c-58 67 -93 155 -93 250c0 98 35 186 93 253c-17 4 -35 6 -55 6
c-120 0 -241 -108 -241 -256c0 -139 115 -258 246 -258c18 0 35 2 50 5zM960 801h-145l-53 64l-56 -64h-145l148 138h105z" />
    <glyph glyph-name="C_Odieresis" unicode="&#xe0a6;" horiz-adv-x="1181" 
d="M1148 368c0 -212 -174 -383 -387 -383c-62 0 -121 14 -173 40c-52 -26 -110 -40 -168 -40c-214 0 -386 179 -386 388c0 204 169 382 383 382c54 0 115 -12 172 -40c52 26 110 40 172 40c210 0 387 -168 387 -387zM1011 369c0 142 -111 258 -250 258c-18 0 -35 -2 -52 -6
c22 -26 42 -57 57 -92h-156c-8 9 -15 17 -24 25c-46 -47 -75 -113 -75 -185c0 -70 28 -134 74 -182c7 7 13 13 18 19h159c-14 -32 -32 -61 -54 -87c17 -4 35 -6 53 -6c141 0 250 119 250 256zM467 118c-58 67 -93 155 -93 250c0 98 35 186 93 253c-17 4 -35 6 -55 6
c-120 0 -241 -108 -241 -256c0 -139 115 -258 246 -258c18 0 35 2 50 5zM932 799h-133v133h133v-133zM722 799h-134v133h134v-133z" />
    <glyph glyph-name="C_Obreve" unicode="&#xe0a7;" horiz-adv-x="1181" 
d="M1148 368c0 -212 -174 -383 -387 -383c-62 0 -121 14 -173 40c-52 -26 -110 -40 -168 -40c-214 0 -386 179 -386 388c0 204 169 382 383 382c54 0 115 -12 172 -40c52 26 110 40 172 40c210 0 387 -168 387 -387zM1011 369c0 142 -111 258 -250 258c-18 0 -35 -2 -52 -6
c22 -26 42 -57 57 -92h-156c-8 9 -15 17 -24 25c-46 -47 -75 -113 -75 -185c0 -70 28 -134 74 -182c7 7 13 13 18 19h159c-14 -32 -32 -61 -54 -87c17 -4 35 -6 53 -6c141 0 250 119 250 256zM467 118c-58 67 -93 155 -93 250c0 98 35 186 93 253c-17 4 -35 6 -55 6
c-120 0 -241 -108 -241 -256c0 -139 115 -258 246 -258c18 0 35 2 50 5zM959 935c-15 -102 -106 -137 -199 -137c-92 0 -183 36 -198 137h108c20 -31 56 -40 90 -40c35 0 71 8 91 40h108z" />
    <glyph glyph-name="C_Otilde" unicode="&#xe0a8;" horiz-adv-x="1181" 
d="M1148 368c0 -212 -174 -383 -387 -383c-62 0 -121 14 -173 40c-52 -26 -110 -40 -168 -40c-214 0 -386 179 -386 388c0 204 169 382 383 382c54 0 115 -12 172 -40c52 26 110 40 172 40c210 0 387 -168 387 -387zM1011 369c0 142 -111 258 -250 258c-18 0 -35 -2 -52 -6
c22 -26 42 -57 57 -92h-156c-8 9 -15 17 -24 25c-46 -47 -75 -113 -75 -185c0 -70 28 -134 74 -182c7 7 13 13 18 19h159c-14 -32 -32 -61 -54 -87c17 -4 35 -6 53 -6c141 0 250 119 250 256zM467 118c-58 67 -93 155 -93 250c0 98 35 186 93 253c-17 4 -35 6 -55 6
c-120 0 -241 -108 -241 -256c0 -139 115 -258 246 -258c18 0 35 2 50 5zM958 853c-35 -28 -68 -47 -114 -47c-50 0 -95 27 -145 27c-30 0 -54 -7 -80 -20l-54 81c33 25 74 43 116 43c51 0 97 -29 147 -29c28 0 53 8 76 23z" />
    <glyph glyph-name="C_Omacron" unicode="&#xe0a9;" horiz-adv-x="1181" 
d="M1148 368c0 -212 -174 -383 -387 -383c-62 0 -121 14 -173 40c-52 -26 -110 -40 -168 -40c-214 0 -386 179 -386 388c0 204 169 382 383 382c54 0 115 -12 172 -40c52 26 110 40 172 40c210 0 387 -168 387 -387zM1011 369c0 142 -111 258 -250 258c-18 0 -35 -2 -52 -6
c22 -26 42 -57 57 -92h-156c-8 9 -15 17 -24 25c-46 -47 -75 -113 -75 -185c0 -70 28 -134 74 -182c7 7 13 13 18 19h159c-14 -32 -32 -61 -54 -87c17 -4 35 -6 53 -6c141 0 250 119 250 256zM467 118c-58 67 -93 155 -93 250c0 98 35 186 93 253c-17 4 -35 6 -55 6
c-120 0 -241 -108 -241 -256c0 -139 115 -258 246 -258c18 0 35 2 50 5zM899 808h-277v111h277v-111z" />
    <glyph glyph-name="C_Ohungarumlaut" unicode="&#xe0aa;" horiz-adv-x="1181" 
d="M1148 368c0 -212 -174 -383 -387 -383c-62 0 -121 14 -173 40c-52 -26 -110 -40 -168 -40c-214 0 -386 179 -386 388c0 204 169 382 383 382c54 0 115 -12 172 -40c52 26 110 40 172 40c210 0 387 -168 387 -387zM1011 369c0 142 -111 258 -250 258c-18 0 -35 -2 -52 -6
c22 -26 42 -57 57 -92h-156c-8 9 -15 17 -24 25c-46 -47 -75 -113 -75 -185c0 -70 28 -134 74 -182c7 7 13 13 18 19h159c-14 -32 -32 -61 -54 -87c17 -4 35 -6 53 -6c141 0 250 119 250 256zM467 118c-58 67 -93 155 -93 250c0 98 35 186 93 253c-17 4 -35 6 -55 6
c-120 0 -241 -108 -241 -256c0 -139 115 -258 246 -258c18 0 35 2 50 5zM1076 930l-207 -150l-57 76l197 163zM834 930l-207 -150l-57 76l197 163z" />
    <glyph glyph-name="Ccedilla_O" unicode="&#xe0ab;" horiz-adv-x="1181" 
d="M508 -153c0 -60 -41 -98 -100 -98c-46 0 -100 37 -100 87h53c4 -23 24 -37 47 -37c28 0 46 21 46 48c0 26 -20 50 -47 50c-18 0 -34 -6 -43 -22l-49 19l42 96c-184 31 -323 195 -323 383c0 204 169 382 383 382c54 0 115 -12 172 -40c52 26 110 40 172 40
c210 0 387 -168 387 -387c0 -212 -174 -383 -387 -383c-62 0 -121 14 -173 40c-52 -26 -110 -40 -168 -40h-12l-18 -40c8 1 17 2 25 2c57 0 93 -45 93 -100zM1011 369c0 142 -111 258 -250 258c-18 0 -35 -2 -52 -6c22 -26 42 -57 57 -92h-156c-7 8 -15 17 -24 25
c-46 -47 -75 -113 -75 -185c0 -70 28 -134 74 -182c7 7 13 13 18 19h159c-14 -32 -32 -61 -54 -87c17 -4 35 -6 53 -6c141 0 250 119 250 256zM467 118c-58 67 -93 155 -93 250c0 98 35 186 93 253c-17 4 -35 6 -55 6c-120 0 -241 -108 -241 -256c0 -139 115 -258 246 -258
c18 0 35 2 50 5z" />
    <glyph glyph-name="Ccedilla_Oacute" unicode="&#xe0ac;" horiz-adv-x="1181" 
d="M508 -153c0 -60 -41 -98 -100 -98c-46 0 -100 37 -100 87h53c4 -23 24 -37 47 -37c28 0 46 21 46 48c0 26 -20 50 -47 50c-18 0 -34 -6 -43 -22l-49 19l42 96c-184 31 -323 195 -323 383c0 204 169 382 383 382c54 0 115 -12 172 -40c52 26 110 40 172 40
c210 0 387 -168 387 -387c0 -212 -174 -383 -387 -383c-62 0 -121 14 -173 40c-52 -26 -110 -40 -168 -40h-12l-18 -40c8 1 17 2 25 2c57 0 93 -45 93 -100zM1011 369c0 142 -111 258 -250 258c-18 0 -35 -2 -52 -6c22 -26 42 -57 57 -92h-156c-7 8 -15 17 -24 25
c-46 -47 -75 -113 -75 -185c0 -70 28 -134 74 -182c7 7 13 13 18 19h159c-14 -32 -32 -61 -54 -87c17 -4 35 -6 53 -6c141 0 250 119 250 256zM467 118c-58 67 -93 155 -93 250c0 98 35 186 93 253c-17 4 -35 6 -55 6c-120 0 -241 -108 -241 -256c0 -139 115 -258 246 -258
c18 0 35 2 50 5zM919 889l-226 -125l-53 92l222 135z" />
    <glyph glyph-name="Ccedilla_Ograve" unicode="&#xe0ad;" horiz-adv-x="1181" 
d="M508 -153c0 -60 -41 -98 -100 -98c-46 0 -100 37 -100 87h53c4 -23 24 -37 47 -37c28 0 46 21 46 48c0 26 -20 50 -47 50c-18 0 -34 -6 -43 -22l-49 19l42 96c-184 31 -323 195 -323 383c0 204 169 382 383 382c54 0 115 -12 172 -40c52 26 110 40 172 40
c210 0 387 -168 387 -387c0 -212 -174 -383 -387 -383c-62 0 -121 14 -173 40c-52 -26 -110 -40 -168 -40h-12l-18 -40c8 1 17 2 25 2c57 0 93 -45 93 -100zM1011 369c0 142 -111 258 -250 258c-18 0 -35 -2 -52 -6c22 -26 42 -57 57 -92h-156c-7 8 -15 17 -24 25
c-46 -47 -75 -113 -75 -185c0 -70 28 -134 74 -182c7 7 13 13 18 19h159c-14 -32 -32 -61 -54 -87c17 -4 35 -6 53 -6c141 0 250 119 250 256zM467 118c-58 67 -93 155 -93 250c0 98 35 186 93 253c-17 4 -35 6 -55 6c-120 0 -241 -108 -241 -256c0 -139 115 -258 246 -258
c18 0 35 2 50 5zM879 856l-53 -92l-226 125l57 102z" />
    <glyph glyph-name="Ccedilla_Ocircumflex" unicode="&#xe0ae;" horiz-adv-x="1181" 
d="M508 -153c0 -60 -41 -98 -100 -98c-46 0 -100 37 -100 87h53c4 -23 24 -37 47 -37c28 0 46 21 46 48c0 26 -20 50 -47 50c-18 0 -34 -6 -43 -22l-49 19l42 96c-184 31 -323 195 -323 383c0 204 169 382 383 382c54 0 115 -12 172 -40c52 26 110 40 172 40
c210 0 387 -168 387 -387c0 -212 -174 -383 -387 -383c-62 0 -121 14 -173 40c-52 -26 -110 -40 -168 -40h-12l-18 -40c8 1 17 2 25 2c57 0 93 -45 93 -100zM1011 369c0 142 -111 258 -250 258c-18 0 -35 -2 -52 -6c22 -26 42 -57 57 -92h-156c-7 8 -15 17 -24 25
c-46 -47 -75 -113 -75 -185c0 -70 28 -134 74 -182c7 7 13 13 18 19h159c-14 -32 -32 -61 -54 -87c17 -4 35 -6 53 -6c141 0 250 119 250 256zM467 118c-58 67 -93 155 -93 250c0 98 35 186 93 253c-17 4 -35 6 -55 6c-120 0 -241 -108 -241 -256c0 -139 115 -258 246 -258
c18 0 35 2 50 5zM960 801h-145l-53 64l-56 -64h-145l148 138h105z" />
    <glyph glyph-name="Ccedilla_Odieresis" unicode="&#xe0af;" horiz-adv-x="1181" 
d="M508 -153c0 -60 -41 -98 -100 -98c-46 0 -100 37 -100 87h53c4 -23 24 -37 47 -37c28 0 46 21 46 48c0 26 -20 50 -47 50c-18 0 -34 -6 -43 -22l-49 19l42 96c-184 31 -323 195 -323 383c0 204 169 382 383 382c54 0 115 -12 172 -40c52 26 110 40 172 40
c210 0 387 -168 387 -387c0 -212 -174 -383 -387 -383c-62 0 -121 14 -173 40c-52 -26 -110 -40 -168 -40h-12l-18 -40c8 1 17 2 25 2c57 0 93 -45 93 -100zM1011 369c0 142 -111 258 -250 258c-18 0 -35 -2 -52 -6c22 -26 42 -57 57 -92h-156c-7 8 -15 17 -24 25
c-46 -47 -75 -113 -75 -185c0 -70 28 -134 74 -182c7 7 13 13 18 19h159c-14 -32 -32 -61 -54 -87c17 -4 35 -6 53 -6c141 0 250 119 250 256zM467 118c-58 67 -93 155 -93 250c0 98 35 186 93 253c-17 4 -35 6 -55 6c-120 0 -241 -108 -241 -256c0 -139 115 -258 246 -258
c18 0 35 2 50 5zM932 799h-133v133h133v-133zM722 799h-134v133h134v-133z" />
    <glyph glyph-name="Cacute_O" unicode="&#xe0b0;" horiz-adv-x="1181" 
d="M1148 368c0 -212 -174 -383 -387 -383c-62 0 -121 14 -173 40c-52 -26 -110 -40 -168 -40c-214 0 -386 179 -386 388c0 204 169 382 383 382c54 0 115 -12 172 -40c52 26 110 40 172 40c210 0 387 -168 387 -387zM1011 369c0 142 -111 258 -250 258c-18 0 -35 -2 -52 -6
c22 -26 42 -57 57 -92h-156c-8 9 -15 17 -24 25c-46 -47 -75 -113 -75 -185c0 -70 28 -134 74 -182c7 7 13 13 18 19h159c-14 -32 -32 -61 -54 -87c17 -4 35 -6 53 -6c141 0 250 119 250 256zM467 118c-58 67 -93 155 -93 250c0 98 35 186 93 253c-17 4 -35 6 -55 6
c-120 0 -241 -108 -241 -256c0 -139 115 -258 246 -258c18 0 35 2 50 5zM548 889l-226 -125l-53 92l222 135z" />
    <glyph glyph-name="Cacute_Oacute" unicode="&#xe0b1;" horiz-adv-x="1181" 
d="M1148 368c0 -212 -174 -383 -387 -383c-62 0 -121 14 -173 40c-52 -26 -110 -40 -168 -40c-214 0 -386 179 -386 388c0 204 169 382 383 382c54 0 115 -12 172 -40c52 26 110 40 172 40c210 0 387 -168 387 -387zM1011 369c0 142 -111 258 -250 258c-18 0 -35 -2 -52 -6
c22 -26 42 -57 57 -92h-156c-8 9 -15 17 -24 25c-46 -47 -75 -113 -75 -185c0 -70 28 -134 74 -182c7 7 13 13 18 19h159c-14 -32 -32 -61 -54 -87c17 -4 35 -6 53 -6c141 0 250 119 250 256zM467 118c-58 67 -93 155 -93 250c0 98 35 186 93 253c-17 4 -35 6 -55 6
c-120 0 -241 -108 -241 -256c0 -139 115 -258 246 -258c18 0 35 2 50 5zM568 889l-226 -125l-53 92l222 135zM949 889l-226 -125l-53 92l222 135z" />
    <glyph glyph-name="Ccircumflex_O" unicode="&#xe0b2;" horiz-adv-x="1181" 
d="M1148 368c0 -212 -174 -383 -387 -383c-62 0 -121 14 -173 40c-52 -26 -110 -40 -168 -40c-214 0 -386 179 -386 388c0 204 169 382 383 382c54 0 115 -12 172 -40c52 26 110 40 172 40c210 0 387 -168 387 -387zM1011 369c0 142 -111 258 -250 258c-18 0 -35 -2 -52 -6
c22 -26 42 -57 57 -92h-156c-8 9 -15 17 -24 25c-46 -47 -75 -113 -75 -185c0 -70 28 -134 74 -182c7 7 13 13 18 19h159c-14 -32 -32 -61 -54 -87c17 -4 35 -6 53 -6c141 0 250 119 250 256zM467 118c-58 67 -93 155 -93 250c0 98 35 186 93 253c-17 4 -35 6 -55 6
c-120 0 -241 -108 -241 -256c0 -139 115 -258 246 -258c18 0 35 2 50 5zM619 801h-145l-53 64l-56 -64h-145l148 138h105z" />
    <glyph glyph-name="Ccircumflex_Odieresis" unicode="&#xe0b3;" horiz-adv-x="1181" 
d="M1148 368c0 -212 -174 -383 -387 -383c-62 0 -121 14 -173 40c-52 -26 -110 -40 -168 -40c-214 0 -386 179 -386 388c0 204 169 382 383 382c54 0 115 -12 172 -40c52 26 110 40 172 40c210 0 387 -168 387 -387zM1011 369c0 142 -111 258 -250 258c-18 0 -35 -2 -52 -6
c22 -26 42 -57 57 -92h-156c-8 9 -15 17 -24 25c-46 -47 -75 -113 -75 -185c0 -70 28 -134 74 -182c7 7 13 13 18 19h159c-14 -32 -32 -61 -54 -87c17 -4 35 -6 53 -6c141 0 250 119 250 256zM467 118c-58 67 -93 155 -93 250c0 98 35 186 93 253c-17 4 -35 6 -55 6
c-120 0 -241 -108 -241 -256c0 -139 115 -258 246 -258c18 0 35 2 50 5zM539 801h-125l-33 64l-36 -64h-125l108 138h105zM932 799h-123v133h123v-133zM752 799h-124v133h124v-133z" />
    <glyph glyph-name="Ccircumflex_Obreve" unicode="&#xe0b4;" horiz-adv-x="1181" 
d="M1148 368c0 -212 -174 -383 -387 -383c-62 0 -121 14 -173 40c-52 -26 -110 -40 -168 -40c-214 0 -386 179 -386 388c0 204 169 382 383 382c54 0 115 -12 172 -40c52 26 110 40 172 40c210 0 387 -168 387 -387zM1011 369c0 142 -111 258 -250 258c-18 0 -35 -2 -52 -6
c22 -26 42 -57 57 -92h-156c-8 9 -15 17 -24 25c-46 -47 -75 -113 -75 -185c0 -70 28 -134 74 -182c7 7 13 13 18 19h159c-14 -32 -32 -61 -54 -87c17 -4 35 -6 53 -6c141 0 250 119 250 256zM467 118c-58 67 -93 155 -93 250c0 98 35 186 93 253c-17 4 -35 6 -55 6
c-120 0 -241 -108 -241 -256c0 -139 115 -258 246 -258c18 0 35 2 50 5zM579 801h-145l-53 64l-56 -64h-145l148 138h105zM969 935c-15 -102 -106 -137 -199 -137c-92 0 -183 36 -198 137h108c20 -31 56 -40 90 -40c35 0 71 8 91 40h108z" />
    <glyph glyph-name="Ccircumflex_Omacron" unicode="&#xe0b5;" horiz-adv-x="1181" 
d="M1148 368c0 -212 -174 -383 -387 -383c-62 0 -121 14 -173 40c-52 -26 -110 -40 -168 -40c-214 0 -386 179 -386 388c0 204 169 382 383 382c54 0 115 -12 172 -40c52 26 110 40 172 40c210 0 387 -168 387 -387zM1011 369c0 142 -111 258 -250 258c-18 0 -35 -2 -52 -6
c22 -26 42 -57 57 -92h-156c-8 9 -15 17 -24 25c-46 -47 -75 -113 -75 -185c0 -70 28 -134 74 -182c7 7 13 13 18 19h159c-14 -32 -32 -61 -54 -87c17 -4 35 -6 53 -6c141 0 250 119 250 256zM467 118c-58 67 -93 155 -93 250c0 98 35 186 93 253c-17 4 -35 6 -55 6
c-120 0 -241 -108 -241 -256c0 -139 115 -258 246 -258c18 0 35 2 50 5zM579 801h-145l-53 64l-56 -64h-145l148 138h105zM919 808h-277v111h277v-111z" />
    <glyph glyph-name="Cdotaccent_O" unicode="&#xe0b6;" horiz-adv-x="1181" 
d="M1148 368c0 -212 -174 -383 -387 -383c-62 0 -121 14 -173 40c-52 -26 -110 -40 -168 -40c-214 0 -386 179 -386 388c0 204 169 382 383 382c54 0 115 -12 172 -40c52 26 110 40 172 40c210 0 387 -168 387 -387zM1011 369c0 142 -111 258 -250 258c-18 0 -35 -2 -52 -6
c22 -26 42 -57 57 -92h-156c-8 9 -15 17 -24 25c-46 -47 -75 -113 -75 -185c0 -70 28 -134 74 -182c7 7 13 13 18 19h159c-14 -32 -32 -61 -54 -87c17 -4 35 -6 53 -6c141 0 250 119 250 256zM467 118c-58 67 -93 155 -93 250c0 98 35 186 93 253c-17 4 -35 6 -55 6
c-120 0 -241 -108 -241 -256c0 -139 115 -258 246 -258c18 0 35 2 50 5zM467 806h-133v133h133v-133z" />
    <glyph glyph-name="Ccaron_O" unicode="&#xe0b7;" horiz-adv-x="1181" 
d="M1148 368c0 -212 -174 -383 -387 -383c-62 0 -121 14 -173 40c-52 -26 -110 -40 -168 -40c-214 0 -386 179 -386 388c0 204 169 382 383 382c54 0 115 -12 172 -40c52 26 110 40 172 40c210 0 387 -168 387 -387zM1011 369c0 142 -111 258 -250 258c-18 0 -35 -2 -52 -6
c22 -26 42 -57 57 -92h-156c-8 9 -15 17 -24 25c-46 -47 -75 -113 -75 -185c0 -70 28 -134 74 -182c7 7 13 13 18 19h159c-14 -32 -32 -61 -54 -87c17 -4 35 -6 53 -6c141 0 250 119 250 256zM467 118c-58 67 -93 155 -93 250c0 98 35 186 93 253c-17 4 -35 6 -55 6
c-120 0 -241 -108 -241 -256c0 -139 115 -258 246 -258c18 0 35 2 50 5zM619 941l-146 -138h-105l-148 138h145l56 -64l53 64h145z" />
    <glyph glyph-name="Ccaron_Oacute" unicode="&#xe0b8;" horiz-adv-x="1181" 
d="M1148 368c0 -212 -174 -383 -387 -383c-62 0 -121 14 -173 40c-52 -26 -110 -40 -168 -40c-214 0 -386 179 -386 388c0 204 169 382 383 382c54 0 115 -12 172 -40c52 26 110 40 172 40c210 0 387 -168 387 -387zM1011 369c0 142 -111 258 -250 258c-18 0 -35 -2 -52 -6
c22 -26 42 -57 57 -92h-156c-8 9 -15 17 -24 25c-46 -47 -75 -113 -75 -185c0 -70 28 -134 74 -182c7 7 13 13 18 19h159c-14 -32 -32 -61 -54 -87c17 -4 35 -6 53 -6c141 0 250 119 250 256zM467 118c-58 67 -93 155 -93 250c0 98 35 186 93 253c-17 4 -35 6 -55 6
c-120 0 -241 -108 -241 -256c0 -139 115 -258 246 -258c18 0 35 2 50 5zM619 941l-146 -138h-105l-148 138h145l56 -64l53 64h145zM939 889l-226 -125l-53 92l222 135z" />
    <glyph glyph-name="Ccaron_Ocircumflex" unicode="&#xe0b9;" horiz-adv-x="1181" 
d="M1148 368c0 -212 -174 -383 -387 -383c-62 0 -121 14 -173 40c-52 -26 -110 -40 -168 -40c-214 0 -386 179 -386 388c0 204 169 382 383 382c54 0 115 -12 172 -40c52 26 110 40 172 40c210 0 387 -168 387 -387zM1011 369c0 142 -111 258 -250 258c-18 0 -35 -2 -52 -6
c22 -26 42 -57 57 -92h-156c-8 9 -15 17 -24 25c-46 -47 -75 -113 -75 -185c0 -70 28 -134 74 -182c7 7 13 13 18 19h159c-14 -32 -32 -61 -54 -87c17 -4 35 -6 53 -6c141 0 250 119 250 256zM467 118c-58 67 -93 155 -93 250c0 98 35 186 93 253c-17 4 -35 6 -55 6
c-120 0 -241 -108 -241 -256c0 -139 115 -258 246 -258c18 0 35 2 50 5zM579 941l-146 -138h-105l-148 138h145l56 -64l53 64h145zM980 801h-145l-53 64l-56 -64h-145l148 138h105z" />
    <glyph glyph-name="D_E" unicode="&#xe0ba;" horiz-adv-x="1096" 
d="M1035 0h-398v240h-2c-28 -83 -82 -152 -155 -192c-68 -38 -163 -48 -246 -48h-171v740h168c182 0 261 -49 304 -86s79 -92 100 -156h2v242h398v-128h-261v-181h250v-128h-250v-175h261v-128zM520 368c0 72 -31 139 -79 182c-57 51 -129 62 -215 62h-26v-484h29
c74 0 122 5 180 36c73 40 111 125 111 204z" />
    <glyph glyph-name="D_Eacute" unicode="&#xe0bb;" horiz-adv-x="1096" 
d="M1035 0h-398v240h-2c-28 -83 -82 -152 -155 -192c-68 -38 -163 -48 -246 -48h-171v740h168c182 0 261 -49 304 -86s79 -92 100 -156h2v242h398v-128h-261v-181h250v-128h-250v-175h261v-128zM520 368c0 72 -31 139 -79 182c-57 51 -129 62 -215 62h-26v-484h29
c74 0 122 5 180 36c73 40 111 125 111 204zM994 889l-226 -125l-53 92l222 135z" />
    <glyph glyph-name="D_Egrave" unicode="&#xe0bc;" horiz-adv-x="1096" 
d="M1035 0h-398v240h-2c-28 -83 -82 -152 -155 -192c-68 -38 -163 -48 -246 -48h-171v740h168c182 0 261 -49 304 -86s79 -92 100 -156h2v242h398v-128h-261v-181h250v-128h-250v-175h261v-128zM520 368c0 72 -31 139 -79 182c-57 51 -129 62 -215 62h-26v-484h29
c74 0 122 5 180 36c73 40 111 125 111 204zM955 856l-53 -92l-226 125l57 102z" />
    <glyph glyph-name="D_Ecircumflex" unicode="&#xe0bd;" horiz-adv-x="1096" 
d="M1035 0h-398v240h-2c-28 -83 -82 -152 -155 -192c-68 -38 -163 -48 -246 -48h-171v740h168c182 0 261 -49 304 -86s79 -92 100 -156h2v242h398v-128h-261v-181h250v-128h-250v-175h261v-128zM520 368c0 72 -31 139 -79 182c-57 51 -129 62 -215 62h-26v-484h29
c74 0 122 5 180 36c73 40 111 125 111 204zM1036 801h-145l-53 64l-56 -64h-145l148 138h105z" />
    <glyph glyph-name="D_Edieresis" unicode="&#xe0be;" horiz-adv-x="1096" 
d="M1035 0h-398v240h-2c-28 -83 -82 -152 -155 -192c-68 -38 -163 -48 -246 -48h-171v740h168c182 0 261 -49 304 -86s79 -92 100 -156h2v242h398v-128h-261v-181h250v-128h-250v-175h261v-128zM520 368c0 72 -31 139 -79 182c-57 51 -129 62 -215 62h-26v-484h29
c74 0 122 5 180 36c73 40 111 125 111 204zM1008 809h-133v133h133v-133zM798 809h-134v133h134v-133z" />
    <glyph glyph-name="D_Emacron" unicode="&#xe0bf;" horiz-adv-x="1096" 
d="M1035 0h-398v240h-2c-28 -83 -82 -152 -155 -192c-68 -38 -163 -48 -246 -48h-171v740h168c182 0 261 -49 304 -86s79 -92 100 -156h2v242h398v-128h-261v-181h250v-128h-250v-175h261v-128zM520 368c0 72 -31 139 -79 182c-57 51 -129 62 -215 62h-26v-484h29
c74 0 122 5 180 36c73 40 111 125 111 204zM974 808h-277v111h277v-111z" />
    <glyph glyph-name="D_Ebreve" unicode="&#xe0c0;" horiz-adv-x="1096" 
d="M1035 0h-398v240h-2c-28 -83 -82 -152 -155 -192c-68 -38 -163 -48 -246 -48h-171v740h168c182 0 261 -49 304 -86s79 -92 100 -156h2v242h398v-128h-261v-181h250v-128h-250v-175h261v-128zM520 368c0 72 -31 139 -79 182c-57 51 -129 62 -215 62h-26v-484h29
c74 0 122 5 180 36c73 40 111 125 111 204zM1035 935c-15 -102 -106 -137 -199 -137c-92 0 -183 36 -198 137h108c20 -31 56 -40 90 -40c35 0 71 8 91 40h108z" />
    <glyph glyph-name="D_Edotaccent" unicode="&#xe0c1;" horiz-adv-x="1096" 
d="M1035 0h-398v240h-2c-28 -83 -82 -152 -155 -192c-68 -38 -163 -48 -246 -48h-171v740h168c182 0 261 -49 304 -86s79 -92 100 -156h2v242h398v-128h-261v-181h250v-128h-250v-175h261v-128zM520 368c0 72 -31 139 -79 182c-57 51 -129 62 -215 62h-26v-484h29
c74 0 122 5 180 36c73 40 111 125 111 204zM903 806h-133v133h133v-133z" />
    <glyph glyph-name="D_Eogonek" unicode="&#xe0c2;" horiz-adv-x="1096" 
d="M972 -204c-60 0 -115 32 -115 97c0 52 44 86 86 107h-306v240h-2c-28 -83 -82 -152 -155 -192c-68 -38 -163 -48 -246 -48h-171v740h168c182 0 261 -49 304 -86s79 -92 100 -156h2v242h398v-128h-261v-181h250v-128h-250v-175h261v-128h-22c-26 -17 -64 -43 -64 -79
c0 -29 24 -45 51 -45c14 0 27 5 40 11v-78c-24 -9 -42 -13 -68 -13zM520 368c0 72 -31 139 -79 182c-57 51 -129 62 -215 62h-26v-484h29c74 0 122 5 180 36c73 40 111 125 111 204z" />
    <glyph glyph-name="D_Ecaron" unicode="&#xe0c3;" horiz-adv-x="1096" 
d="M1035 0h-398v240h-2c-28 -83 -82 -152 -155 -192c-68 -38 -163 -48 -246 -48h-171v740h168c182 0 261 -49 304 -86s79 -92 100 -156h2v242h398v-128h-261v-181h250v-128h-250v-175h261v-128zM520 368c0 72 -31 139 -79 182c-57 51 -129 62 -215 62h-26v-484h29
c74 0 122 5 180 36c73 40 111 125 111 204zM1036 941l-146 -138h-105l-148 138h145l56 -64l53 64h145z" />
    <glyph glyph-name="Dcaron_E" unicode="&#xe0c4;" horiz-adv-x="1096" 
d="M1035 0h-398v240h-2c-28 -83 -82 -152 -155 -192c-68 -38 -163 -48 -246 -48h-171v740h168c182 0 261 -49 304 -86s79 -92 100 -156h2v242h398v-128h-261v-181h250v-128h-250v-175h261v-128zM520 368c0 72 -31 139 -79 182c-57 51 -129 62 -215 62h-26v-484h29
c74 0 122 5 180 36c73 40 111 125 111 204zM500 941l-146 -138h-105l-148 138h145l56 -64l53 64h145z" />
    <glyph glyph-name="Dcaron_Eacute" unicode="&#xe0c5;" horiz-adv-x="1096" 
d="M1035 0h-398v240h-2c-28 -83 -82 -152 -155 -192c-68 -38 -163 -48 -246 -48h-171v740h168c182 0 261 -49 304 -86s79 -92 100 -156h2v242h398v-128h-261v-181h250v-128h-250v-175h261v-128zM520 368c0 72 -31 139 -79 182c-57 51 -129 62 -215 62h-26v-484h29
c74 0 122 5 180 36c73 40 111 125 111 204zM500 941l-146 -138h-105l-148 138h145l56 -64l53 64h145zM994 889l-226 -125l-53 92l222 135z" />
    <glyph glyph-name="Dcaron_Ecaron" unicode="&#xe0c6;" horiz-adv-x="1096" 
d="M1035 0h-398v240h-2c-28 -83 -82 -152 -155 -192c-68 -38 -163 -48 -246 -48h-171v740h168c182 0 261 -49 304 -86s79 -92 100 -156h2v242h398v-128h-261v-181h250v-128h-250v-175h261v-128zM520 368c0 72 -31 139 -79 182c-57 51 -129 62 -215 62h-26v-484h29
c74 0 122 5 180 36c73 40 111 125 111 204zM500 941l-146 -138h-105l-148 138h145l56 -64l53 64h145zM1036 941l-146 -138h-105l-148 138h145l56 -64l53 64h145z" />
    <glyph glyph-name="Dcroat_E" unicode="&#xe0c7;" horiz-adv-x="1130" 
d="M1069 0h-398v240h-2c-28 -83 -82 -152 -155 -192c-68 -38 -163 -48 -246 -48h-171v311h-72v128h72v301h168c182 0 261 -49 304 -86s79 -92 100 -156h2v242h398v-128h-261v-181h250v-128h-250v-175h261v-128zM371 311h-137v-183h29c74 0 122 5 180 36
c73 40 111 125 111 204c0 72 -31 139 -79 182c-57 51 -129 62 -215 62h-26v-173h137v-128z" />
    <glyph glyph-name="D_I" unicode="&#xe0c8;" horiz-adv-x="852" 
d="M782 0h-137v240h-2c-28 -83 -82 -152 -155 -192c-68 -38 -163 -48 -246 -48h-171v740h168c182 0 261 -49 304 -86s79 -92 100 -156h2v242h137v-740zM528 368c0 72 -31 139 -79 182c-57 51 -129 62 -215 62h-26v-484h29c74 0 122 5 180 36c73 40 111 125 111 204z" />
    <glyph glyph-name="D_Iacute" unicode="&#xe0c9;" horiz-adv-x="852" 
d="M782 0h-137v240h-2c-28 -83 -82 -152 -155 -192c-68 -38 -163 -48 -246 -48h-171v740h168c182 0 261 -49 304 -86s79 -92 100 -156h2v242h137v-740zM528 368c0 72 -31 139 -79 182c-57 51 -129 62 -215 62h-26v-484h29c74 0 122 5 180 36c73 40 111 125 111 204zM896 889
l-226 -125l-53 92l222 135z" />
    <glyph glyph-name="D_Igrave" unicode="&#xe0ca;" horiz-adv-x="852" 
d="M782 0h-137v240h-2c-28 -83 -82 -152 -155 -192c-68 -38 -163 -48 -246 -48h-171v740h168c182 0 261 -49 304 -86s79 -92 100 -156h2v242h137v-740zM528 368c0 72 -31 139 -79 182c-57 51 -129 62 -215 62h-26v-484h29c74 0 122 5 180 36c73 40 111 125 111 204zM807 856
l-53 -92l-226 125l57 102z" />
    <glyph glyph-name="D_Icircumflex" unicode="&#xe0cb;" horiz-adv-x="852" 
d="M782 0h-137v240h-2c-28 -83 -82 -152 -155 -192c-68 -38 -163 -48 -246 -48h-171v740h168c182 0 261 -49 304 -86s79 -92 100 -156h2v242h137v-740zM528 368c0 72 -31 139 -79 182c-57 51 -129 62 -215 62h-26v-484h29c74 0 122 5 180 36c73 40 111 125 111 204zM914 801
h-145l-53 64l-56 -64h-145l148 138h105z" />
    <glyph glyph-name="D_Idieresis" unicode="&#xe0cc;" horiz-adv-x="852" 
d="M782 0h-137v240h-2c-28 -83 -82 -152 -155 -192c-68 -38 -163 -48 -246 -48h-171v740h168c182 0 261 -49 304 -86s79 -92 100 -156h2v242h137v-740zM528 368c0 72 -31 139 -79 182c-57 51 -129 62 -215 62h-26v-484h29c74 0 122 5 180 36c73 40 111 125 111 204zM886 799
h-133v133h133v-133zM676 799h-134v133h134v-133z" />
    <glyph glyph-name="D_Itilde" unicode="&#xe0cd;" horiz-adv-x="852" 
d="M782 0h-137v240h-2c-28 -83 -82 -152 -155 -192c-68 -38 -163 -48 -246 -48h-171v740h168c182 0 261 -49 304 -86s79 -92 100 -156h2v242h137v-740zM528 368c0 72 -31 139 -79 182c-57 51 -129 62 -215 62h-26v-484h29c74 0 122 5 180 36c73 40 111 125 111 204zM891 853
c-35 -28 -68 -47 -114 -47c-50 0 -95 27 -145 27c-30 0 -54 -7 -80 -20l-54 81c33 25 74 43 116 43c51 0 97 -29 147 -29c28 0 53 8 76 23z" />
    <glyph glyph-name="D_Imacron" unicode="&#xe0ce;" horiz-adv-x="852" 
d="M782 0h-137v240h-2c-28 -83 -82 -152 -155 -192c-68 -38 -163 -48 -246 -48h-171v740h168c182 0 261 -49 304 -86s79 -92 100 -156h2v242h137v-740zM528 368c0 72 -31 139 -79 182c-57 51 -129 62 -215 62h-26v-484h29c74 0 122 5 180 36c73 40 111 125 111 204zM853 808
h-277v111h277v-111z" />
    <glyph glyph-name="D_Ibreve" unicode="&#xe0cf;" horiz-adv-x="852" 
d="M782 0h-137v240h-2c-28 -83 -82 -152 -155 -192c-68 -38 -163 -48 -246 -48h-171v740h168c182 0 261 -49 304 -86s79 -92 100 -156h2v242h137v-740zM528 368c0 72 -31 139 -79 182c-57 51 -129 62 -215 62h-26v-484h29c74 0 122 5 180 36c73 40 111 125 111 204zM913 935
c-15 -102 -106 -137 -199 -137c-92 0 -183 36 -198 137h108c20 -31 56 -40 90 -40c35 0 71 8 91 40h108z" />
    <glyph glyph-name="D_Idotaccent" unicode="&#xe0d0;" horiz-adv-x="852" 
d="M782 0h-137v240h-2c-28 -83 -82 -152 -155 -192c-68 -38 -163 -48 -246 -48h-171v740h168c182 0 261 -49 304 -86s79 -92 100 -156h2v242h137v-740zM528 368c0 72 -31 139 -79 182c-57 51 -129 62 -215 62h-26v-484h29c74 0 122 5 180 36c73 40 111 125 111 204zM781 806
h-133v133h133v-133z" />
    <glyph glyph-name="D_Iogonek" unicode="&#xe0d1;" horiz-adv-x="852" 
d="M741 -204c-60 0 -115 32 -115 97c0 52 44 86 86 107h-67v240h-2c-28 -83 -82 -152 -155 -192c-68 -38 -163 -48 -246 -48h-171v740h168c182 0 261 -49 304 -86s79 -92 100 -156h2v242h137v-740c-26 -17 -64 -43 -64 -79c0 -29 24 -45 51 -45c14 0 27 5 40 11v-78
c-24 -9 -42 -13 -68 -13zM528 368c0 72 -31 139 -79 182c-57 51 -129 62 -215 62h-26v-484h29c74 0 122 5 180 36c73 40 111 125 111 204z" />
    <glyph glyph-name="Dcaron_I" unicode="&#xe0d2;" horiz-adv-x="852" 
d="M782 0h-137v240h-2c-28 -83 -82 -152 -155 -192c-68 -38 -163 -48 -246 -48h-171v740h168c182 0 261 -49 304 -86s79 -92 100 -156h2v242h137v-740zM528 368c0 72 -31 139 -79 182c-57 51 -129 62 -215 62h-26v-484h29c74 0 122 5 180 36c73 40 111 125 111 204zM500 941
l-146 -138h-105l-148 138h145l56 -64l53 64h145z" />
    <glyph glyph-name="Dcaron_Iacute" unicode="&#xe0d3;" horiz-adv-x="852" 
d="M782 0h-137v240h-2c-28 -83 -82 -152 -155 -192c-68 -38 -163 -48 -246 -48h-171v740h168c182 0 261 -49 304 -86s79 -92 100 -156h2v242h137v-740zM528 368c0 72 -31 139 -79 182c-57 51 -129 62 -215 62h-26v-484h29c74 0 122 5 180 36c73 40 111 125 111 204zM500 941
l-146 -138h-105l-148 138h145l56 -64l53 64h145zM866 889l-226 -125l-53 92l222 135z" />
    <glyph glyph-name="Dcroat_I" unicode="&#xe0d4;" horiz-adv-x="886" 
d="M816 0h-137v240h-2c-28 -83 -82 -152 -155 -192c-68 -38 -163 -48 -246 -48h-171v311h-80v128h80v301h168c182 0 261 -49 304 -86s79 -92 100 -156h2v242h137v-740zM371 311h-129v-183h29c74 0 122 5 180 36c73 40 111 125 111 204c0 72 -31 139 -79 182
c-57 51 -129 62 -215 62h-26v-173h129v-128z" />
    <glyph glyph-name="E_A" unicode="&#xe0d5;" horiz-adv-x="930" 
d="M860 0h-137v191h-210l-44 -63h67v-128h-465v740h371v-128h-234v-171h226v-128h-226v-185h97l431 612h124v-740zM723 319v177h-2l-120 -177h122z" />
    <glyph glyph-name="Eacute_A" unicode="&#xe0d6;" horiz-adv-x="930" 
d="M860 0h-137v191h-210l-44 -63h67v-128h-465v740h371v-128h-234v-171h226v-128h-226v-185h97l431 612h124v-740zM723 319v177h-2l-120 -177h122zM418 889l-226 -125l-53 92l222 135z" />
    <glyph glyph-name="Egrave_A" unicode="&#xe0d7;" horiz-adv-x="930" 
d="M860 0h-137v191h-210l-44 -63h67v-128h-465v740h371v-128h-234v-171h226v-128h-226v-185h97l431 612h124v-740zM723 319v177h-2l-120 -177h122zM379 856l-53 -92l-226 125l57 102z" />
    <glyph glyph-name="Ecircumflex_A" unicode="&#xe0d8;" horiz-adv-x="930" 
d="M860 0h-137v191h-210l-44 -63h67v-128h-465v740h371v-128h-234v-171h226v-128h-226v-185h97l431 612h124v-740zM723 319v177h-2l-120 -177h122zM460 801h-145l-53 64l-56 -64h-145l148 138h105z" />
    <glyph glyph-name="Edieresis_A" unicode="&#xe0d9;" horiz-adv-x="930" 
d="M860 0h-137v191h-210l-44 -63h67v-128h-465v740h371v-128h-234v-171h226v-128h-226v-185h97l431 612h124v-740zM723 319v177h-2l-120 -177h122zM432 809h-133v133h133v-133zM222 809h-134v133h134v-133z" />
    <glyph glyph-name="Emacron_A" unicode="&#xe0da;" horiz-adv-x="930" 
d="M860 0h-137v191h-210l-44 -63h67v-128h-465v740h371v-128h-234v-171h226v-128h-226v-185h97l431 612h124v-740zM723 319v177h-2l-120 -177h122zM399 808h-277v111h277v-111z" />
    <glyph glyph-name="Ebreve_A" unicode="&#xe0db;" horiz-adv-x="930" 
d="M860 0h-137v191h-210l-44 -63h67v-128h-465v740h371v-128h-234v-171h226v-128h-226v-185h97l431 612h124v-740zM723 319v177h-2l-120 -177h122zM459 935c-15 -102 -106 -137 -199 -137c-92 0 -183 36 -198 137h108c20 -31 56 -40 90 -40c35 0 71 8 91 40h108z" />
    <glyph glyph-name="Edotaccent_A" unicode="&#xe0dc;" horiz-adv-x="930" 
d="M860 0h-137v191h-210l-44 -63h67v-128h-465v740h371v-128h-234v-171h226v-128h-226v-185h97l431 612h124v-740zM723 319v177h-2l-120 -177h122zM327 806h-133v133h133v-133z" />
    <glyph glyph-name="Ecaron_A" unicode="&#xe0dd;" horiz-adv-x="930" 
d="M860 0h-137v191h-210l-44 -63h67v-128h-465v740h371v-128h-234v-171h226v-128h-226v-185h97l431 612h124v-740zM723 319v177h-2l-120 -177h122zM460 941l-146 -138h-105l-148 138h145l56 -64l53 64h145z" />
    <glyph glyph-name="F_A" unicode="&#xe0de;" horiz-adv-x="900" 
d="M830 0h-137v232h-182l-160 -232h-280v740h386v-128h-249v-252h230l267 380h125v-740zM693 360v136h-2l-93 -136h95zM348 232h-140v-199z" />
    <glyph glyph-name="F_Aacute" unicode="&#xe0df;" horiz-adv-x="900" 
d="M830 0h-137v232h-182l-160 -232h-280v740h386v-128h-249v-252h230l267 380h125v-740zM693 360v136h-2l-93 -136h95zM348 232h-140v-199zM903 889l-226 -125l-53 92l222 135z" />
    <glyph glyph-name="F_Agrave" unicode="&#xe0e0;" horiz-adv-x="900" 
d="M830 0h-137v232h-182l-160 -232h-280v740h386v-128h-249v-252h230l267 380h125v-740zM693 360v136h-2l-93 -136h95zM348 232h-140v-199zM866 856l-53 -92l-226 125l57 102z" />
    <glyph glyph-name="F_Acircumflex" unicode="&#xe0e1;" horiz-adv-x="900" 
d="M830 0h-137v232h-182l-160 -232h-280v740h386v-128h-249v-252h230l267 380h125v-740zM693 360v136h-2l-93 -136h95zM348 232h-140v-199zM944 801h-145l-53 64l-56 -64h-145l148 138h105z" />
    <glyph glyph-name="F_Adieresis" unicode="&#xe0e2;" horiz-adv-x="900" 
d="M830 0h-137v232h-182l-160 -232h-280v740h386v-128h-249v-252h230l267 380h125v-740zM693 360v136h-2l-93 -136h95zM348 232h-140v-199zM907 809h-133v133h133v-133zM697 809h-134v133h134v-133z" />
    <glyph glyph-name="F_Aring" unicode="&#xe0e3;" horiz-adv-x="900" 
d="M830 0h-137v232h-182l-160 -232h-280v740h386v-128h-249v-252h230l267 380h125v-740zM693 360v136h-2l-93 -136h95zM348 232h-140v-199zM866 868c0 -59 -49 -107 -108 -107c-58 0 -107 49 -107 107c0 59 47 108 107 108s108 -48 108 -108zM799 868c0 23 -18 41 -41 41
s-40 -19 -40 -41s18 -40 40 -40s41 17 41 40z" />
    <glyph glyph-name="F_Amacron" unicode="&#xe0e4;" horiz-adv-x="900" 
d="M830 0h-137v232h-182l-160 -232h-280v740h386v-128h-249v-252h230l267 380h125v-740zM693 360v136h-2l-93 -136h95zM348 232h-140v-199zM889 808h-277v111h277v-111z" />
    <glyph glyph-name="F_Abreve" unicode="&#xe0e5;" horiz-adv-x="900" 
d="M830 0h-137v232h-182l-160 -232h-280v740h386v-128h-249v-252h230l267 380h125v-740zM693 360v136h-2l-93 -136h95zM348 232h-140v-199zM942 935c-15 -102 -106 -137 -199 -137c-92 0 -183 36 -198 137h108c20 -31 56 -40 90 -40c35 0 71 8 91 40h108z" />
    <glyph glyph-name="F_Aogonek" unicode="&#xe0e6;" horiz-adv-x="900" 
d="M722 -204c-60 0 -115 32 -115 97c0 52 44 86 86 107v232h-182l-160 -232h-280v740h386v-128h-249v-252h230l267 380h125v-740h-67c-26 -17 -64 -43 -64 -79c0 -29 24 -45 51 -45c14 0 27 5 40 11v-78c-24 -9 -42 -13 -68 -13zM348 232h-140v-199zM693 360v136h-2
l-93 -136h95z" />
    <glyph glyph-name="F_R" unicode="&#xe0e7;" horiz-adv-x="734" 
d="M694 379c0 -82 -54 -174 -150 -193l144 -186h-172l-134 183v-183h-134v309h-40v-309h-137v740h399v-128h-262v-181h40v150h197c99 0 151 -24 194 -69c38 -40 55 -83 55 -133zM557 375c0 21 -12 47 -25 60c-21 21 -47 28 -82 28h-68v-32h88v-122h-88v-31h62
c46 0 65 8 84 24c23 20 29 47 29 73z" />
    <glyph glyph-name="F_Rcommaaccent" unicode="&#xe0e8;" horiz-adv-x="734" 
d="M694 379c0 -82 -54 -174 -150 -193l144 -186h-172l-134 183v-183h-134v309h-40v-309h-137v740h399v-128h-262v-181h40v150h197c99 0 151 -24 194 -69c38 -40 55 -83 55 -133zM557 375c0 21 -12 47 -25 60c-21 21 -47 28 -82 28h-68v-32h88v-122h-88v-31h62
c46 0 65 8 84 24c23 20 29 47 29 73zM518 -140c0 -72 -57 -119 -132 -119v57c43 7 58 24 58 58h-59v92h133v-88z" />
    <glyph glyph-name="G_A" unicode="&#xe0e9;" horiz-adv-x="1013" 
d="M943 0h-137v249h-2c-34 -101 -142 -263 -385 -263c-218 0 -392 172 -392 384c0 221 189 385 387 385c110 0 200 -38 265 -94l-80 -118c-39 50 -105 84 -187 84c-155 0 -248 -138 -248 -257c0 -133 100 -234 201 -251l89 130h-120v128h208l249 363h152v-740zM806 377v173
h-2l-109 -173h111zM651 249h-34l-79 -116c44 18 96 69 113 116z" />
    <glyph glyph-name="G_Aacute" unicode="&#xe0ea;" horiz-adv-x="1013" 
d="M943 0h-137v249h-2c-34 -101 -142 -263 -385 -263c-218 0 -392 172 -392 384c0 221 189 385 387 385c110 0 200 -38 265 -94l-80 -118c-39 50 -105 84 -187 84c-155 0 -248 -138 -248 -257c0 -133 100 -234 201 -251l89 130h-120v128h208l249 363h152v-740zM806 377v173
h-2l-109 -173h111zM651 249h-34l-79 -116c44 18 96 69 113 116zM1007 889l-226 -125l-53 92l222 135z" />
    <glyph glyph-name="G_Agrave" unicode="&#xe0eb;" horiz-adv-x="1013" 
d="M943 0h-137v249h-2c-34 -101 -142 -263 -385 -263c-218 0 -392 172 -392 384c0 221 189 385 387 385c110 0 200 -38 265 -94l-80 -118c-39 50 -105 84 -187 84c-155 0 -248 -138 -248 -257c0 -133 100 -234 201 -251l89 130h-120v128h208l249 363h152v-740zM806 377v173
h-2l-109 -173h111zM651 249h-34l-79 -116c44 18 96 69 113 116zM969 856l-53 -92l-226 125l57 102z" />
    <glyph glyph-name="G_Acircumflex" unicode="&#xe0ec;" horiz-adv-x="1013" 
d="M943 0h-137v249h-2c-34 -101 -142 -263 -385 -263c-218 0 -392 172 -392 384c0 221 189 385 387 385c110 0 200 -38 265 -94l-80 -118c-39 50 -105 84 -187 84c-155 0 -248 -138 -248 -257c0 -133 100 -234 201 -251l89 130h-120v128h208l249 363h152v-740zM806 377v173
h-2l-109 -173h111zM651 249h-34l-79 -116c44 18 96 69 113 116zM1046 801h-145l-53 64l-56 -64h-145l148 138h105z" />
    <glyph glyph-name="G_Adieresis" unicode="&#xe0ed;" horiz-adv-x="1013" 
d="M943 0h-137v249h-2c-34 -101 -142 -263 -385 -263c-218 0 -392 172 -392 384c0 221 189 385 387 385c110 0 200 -38 265 -94l-80 -118c-39 50 -105 84 -187 84c-155 0 -248 -138 -248 -257c0 -133 100 -234 201 -251l89 130h-120v128h208l249 363h152v-740zM806 377v173
h-2l-109 -173h111zM651 249h-34l-79 -116c44 18 96 69 113 116zM1020 799h-133v133h133v-133zM810 799h-134v133h134v-133z" />
    <glyph glyph-name="G_Atilde" unicode="&#xe0ee;" horiz-adv-x="1013" 
d="M943 0h-137v249h-2c-34 -101 -142 -263 -385 -263c-218 0 -392 172 -392 384c0 221 189 385 387 385c110 0 200 -38 265 -94l-80 -118c-39 50 -105 84 -187 84c-155 0 -248 -138 -248 -257c0 -133 100 -234 201 -251l89 130h-120v128h208l249 363h152v-740zM806 377v173
h-2l-109 -173h111zM651 249h-34l-79 -116c44 18 96 69 113 116zM1030 853c-35 -28 -68 -47 -114 -47c-50 0 -95 27 -145 27c-30 0 -54 -7 -80 -20l-54 81c33 25 74 43 116 43c51 0 97 -29 147 -29c28 0 53 8 76 23z" />
    <glyph glyph-name="G_Aring" unicode="&#xe0ef;" horiz-adv-x="1013" 
d="M943 0h-137v249h-2c-34 -101 -142 -263 -385 -263c-218 0 -392 172 -392 384c0 221 189 385 387 385c110 0 200 -38 265 -94l-80 -118c-39 50 -105 84 -187 84c-155 0 -248 -138 -248 -257c0 -133 100 -234 201 -251l89 130h-120v128h208l249 363h152v-740zM806 377v173
h-2l-109 -173h111zM651 249h-34l-79 -116c44 18 96 69 113 116zM969 868c0 -59 -49 -107 -108 -107c-58 0 -107 49 -107 107c0 59 47 108 107 108s108 -48 108 -108zM902 868c0 23 -18 41 -41 41s-40 -19 -40 -41s18 -40 40 -40s41 17 41 40z" />
    <glyph glyph-name="G_Amacron" unicode="&#xe0f0;" horiz-adv-x="1013" 
d="M943 0h-137v249h-2c-34 -101 -142 -263 -385 -263c-218 0 -392 172 -392 384c0 221 189 385 387 385c110 0 200 -38 265 -94l-80 -118c-39 50 -105 84 -187 84c-155 0 -248 -138 -248 -257c0 -133 100 -234 201 -251l89 130h-120v128h208l249 363h152v-740zM806 377v173
h-2l-109 -173h111zM651 249h-34l-79 -116c44 18 96 69 113 116zM990 808h-277v111h277v-111z" />
    <glyph glyph-name="G_Abreve" unicode="&#xe0f1;" horiz-adv-x="1013" 
d="M943 0h-137v249h-2c-34 -101 -142 -263 -385 -263c-218 0 -392 172 -392 384c0 221 189 385 387 385c110 0 200 -38 265 -94l-80 -118c-39 50 -105 84 -187 84c-155 0 -248 -138 -248 -257c0 -133 100 -234 201 -251l89 130h-120v128h208l249 363h152v-740zM806 377v173
h-2l-109 -173h111zM651 249h-34l-79 -116c44 18 96 69 113 116zM1045 935c-15 -102 -106 -137 -199 -137c-92 0 -183 36 -198 137h108c20 -31 56 -40 90 -40c35 0 71 8 91 40h108z" />
    <glyph glyph-name="G_Aogonek" unicode="&#xe0f2;" horiz-adv-x="1013" 
d="M835 -204c-60 0 -115 32 -115 97c0 52 44 86 86 107v249h-2c-34 -101 -142 -263 -385 -263c-218 0 -392 172 -392 384c0 221 189 385 387 385c110 0 200 -38 265 -94l-80 -118c-39 50 -105 84 -187 84c-155 0 -248 -138 -248 -257c0 -133 100 -234 201 -251l89 130h-120
v128h208l249 363h152v-740h-67c-26 -17 -64 -43 -64 -79c0 -29 24 -45 51 -45c14 0 27 5 40 11v-78c-24 -9 -42 -13 -68 -13zM806 377v173h-2l-109 -173h111zM651 249h-34l-79 -116c44 18 96 69 113 116z" />
    <glyph glyph-name="Gcircumflex_A" unicode="&#xe0f3;" horiz-adv-x="1013" 
d="M943 0h-137v249h-2c-34 -101 -142 -263 -385 -263c-218 0 -392 172 -392 384c0 221 189 385 387 385c110 0 200 -38 265 -94l-80 -118c-39 50 -105 84 -187 84c-155 0 -248 -138 -248 -257c0 -133 100 -234 201 -251l89 130h-120v128h208l249 363h152v-740zM806 377v173
h-2l-109 -173h111zM651 249h-34l-79 -116c44 18 96 69 113 116zM600 801h-145l-53 64l-56 -64h-145l148 138h105z" />
    <glyph glyph-name="Gcircumflex_Amacron" unicode="&#xe0f4;" horiz-adv-x="1013" 
d="M943 0h-137v249h-2c-34 -101 -142 -263 -385 -263c-218 0 -392 172 -392 384c0 221 189 385 387 385c110 0 200 -38 265 -94l-80 -118c-39 50 -105 84 -187 84c-155 0 -248 -138 -248 -257c0 -133 100 -234 201 -251l89 130h-120v128h208l249 363h152v-740zM806 377v173
h-2l-109 -173h111zM651 249h-34l-79 -116c44 18 96 69 113 116zM580 801h-145l-53 64l-56 -64h-145l148 138h105zM986 808h-277v111h277v-111z" />
    <glyph glyph-name="Gcircumflex_Abreve" unicode="&#xe0f5;" horiz-adv-x="1013" 
d="M943 0h-137v249h-2c-34 -101 -142 -263 -385 -263c-218 0 -392 172 -392 384c0 221 189 385 387 385c110 0 200 -38 265 -94l-80 -118c-39 50 -105 84 -187 84c-155 0 -248 -138 -248 -257c0 -133 100 -234 201 -251l89 130h-120v128h208l249 363h152v-740zM806 377v173
h-2l-109 -173h111zM651 249h-34l-79 -116c44 18 96 69 113 116zM570 801h-145l-53 64l-56 -64h-145l148 138h105zM1035 935c-15 -102 -106 -137 -199 -137c-92 0 -183 36 -198 137h108c20 -31 56 -40 90 -40c35 0 71 8 91 40h108z" />
    <glyph glyph-name="Gbreve_A" unicode="&#xe0f6;" horiz-adv-x="1013" 
d="M943 0h-137v249h-2c-34 -101 -142 -263 -385 -263c-218 0 -392 172 -392 384c0 221 189 385 387 385c110 0 200 -38 265 -94l-80 -118c-39 50 -105 84 -187 84c-155 0 -248 -138 -248 -257c0 -133 100 -234 201 -251l89 130h-120v128h208l249 363h152v-740zM806 377v173
h-2l-109 -173h111zM651 249h-34l-79 -116c44 18 96 69 113 116zM599 935c-15 -102 -106 -137 -199 -137c-92 0 -183 36 -198 137h108c20 -31 56 -40 90 -40c35 0 71 8 91 40h108z" />
    <glyph glyph-name="Gbreve_Acircumflex" unicode="&#xe0f7;" horiz-adv-x="1013" 
d="M943 0h-137v249h-2c-34 -101 -142 -263 -385 -263c-218 0 -392 172 -392 384c0 221 189 385 387 385c110 0 200 -38 265 -94l-80 -118c-39 50 -105 84 -187 84c-155 0 -248 -138 -248 -257c0 -133 100 -234 201 -251l89 130h-120v128h208l249 363h152v-740zM806 377v173
h-2l-109 -173h111zM651 249h-34l-79 -116c44 18 96 69 113 116zM589 935c-15 -102 -106 -137 -199 -137c-92 0 -183 36 -198 137h108c20 -31 56 -40 90 -40c35 0 71 8 91 40h108zM1027 801h-145l-53 64l-56 -64h-145l148 138h105z" />
    <glyph glyph-name="Gdotaccent_A" unicode="&#xe0f8;" horiz-adv-x="1013" 
d="M943 0h-137v249h-2c-34 -101 -142 -263 -385 -263c-218 0 -392 172 -392 384c0 221 189 385 387 385c110 0 200 -38 265 -94l-80 -118c-39 50 -105 84 -187 84c-155 0 -248 -138 -248 -257c0 -133 100 -234 201 -251l89 130h-120v128h208l249 363h152v-740zM806 377v173
h-2l-109 -173h111zM651 249h-34l-79 -116c44 18 96 69 113 116zM467 807h-133v133h133v-133z" />
    <glyph glyph-name="Gdotaccent_Agrave" unicode="&#xe0f9;" horiz-adv-x="1013" 
d="M943 0h-137v249h-2c-34 -101 -142 -263 -385 -263c-218 0 -392 172 -392 384c0 221 189 385 387 385c110 0 200 -38 265 -94l-80 -118c-39 50 -105 84 -187 84c-155 0 -248 -138 -248 -257c0 -133 100 -234 201 -251l89 130h-120v128h208l249 363h152v-740zM806 377v173
h-2l-109 -173h111zM651 249h-34l-79 -116c44 18 96 69 113 116zM457 806h-133v133h133v-133zM970 856l-53 -92l-226 125l57 102z" />
    <glyph glyph-name="Gcommaaccent_A" unicode="&#xe0fa;" horiz-adv-x="1013" 
d="M943 0h-137v249h-2c-34 -101 -142 -263 -385 -263c-218 0 -392 172 -392 384c0 221 189 385 387 385c110 0 200 -38 265 -94l-80 -118c-39 50 -105 84 -187 84c-155 0 -248 -138 -248 -257c0 -133 100 -234 201 -251l89 130h-120v128h208l249 363h152v-740zM806 377v173
h-2l-109 -173h111zM651 249h-34l-79 -116c44 18 96 69 113 116zM486 -140c0 -72 -57 -119 -132 -119v57c43 7 58 24 58 58h-59v92h133v-88z" />
    <glyph glyph-name="Gcommaaccent_Amacron" unicode="&#xe0fb;" horiz-adv-x="1013" 
d="M943 0h-137v249h-2c-34 -101 -142 -263 -385 -263c-218 0 -392 172 -392 384c0 221 189 385 387 385c110 0 200 -38 265 -94l-80 -118c-39 50 -105 84 -187 84c-155 0 -248 -138 -248 -257c0 -133 100 -234 201 -251l89 130h-120v128h208l249 363h152v-740zM806 377v173
h-2l-109 -173h111zM651 249h-34l-79 -116c44 18 96 69 113 116zM486 -140c0 -72 -57 -119 -132 -119v57c43 7 58 24 58 58h-59v92h133v-88zM996 808h-277v111h277v-111z" />
    <glyph glyph-name="G_O" unicode="&#xe0fc;" horiz-adv-x="1184" 
d="M1151 368c0 -212 -174 -383 -387 -383c-61 0 -118 14 -169 38c-52 -24 -110 -38 -170 -38c-212 0 -398 163 -398 385c0 218 185 385 394 385c64 0 123 -15 173 -39c51 25 109 39 170 39c210 0 387 -168 387 -387zM1014 369c0 142 -111 258 -250 258c-16 0 -31 -1 -46 -4
c29 -33 50 -67 62 -100h-154c-7 11 -21 27 -31 37c-49 -48 -79 -113 -81 -183h303v-16c0 -94 -36 -179 -95 -244c14 -3 27 -4 42 -4c141 0 250 119 250 256zM652 249h-108c13 -25 34 -51 54 -71c20 19 41 45 54 71zM471 117c-33 38 -59 83 -75 132h-62v128h43
c2 95 37 179 94 244c-17 4 -34 6 -53 6c-167 0 -254 -142 -254 -258c0 -113 85 -256 261 -256c16 0 31 1 46 4z" />
    <glyph glyph-name="G_Oacute" unicode="&#xe0fd;" horiz-adv-x="1184" 
d="M1151 368c0 -212 -174 -383 -387 -383c-61 0 -118 14 -169 38c-52 -24 -110 -38 -170 -38c-212 0 -398 163 -398 385c0 218 185 385 394 385c64 0 123 -15 173 -39c51 25 109 39 170 39c210 0 387 -168 387 -387zM1014 369c0 142 -111 258 -250 258c-16 0 -31 -1 -46 -4
c29 -33 50 -67 62 -100h-154c-7 11 -21 27 -31 37c-49 -48 -79 -113 -81 -183h303v-16c0 -94 -36 -179 -95 -244c14 -3 27 -4 42 -4c141 0 250 119 250 256zM652 249h-108c13 -25 34 -51 54 -71c20 19 41 45 54 71zM471 117c-33 38 -59 83 -75 132h-62v128h43
c2 95 37 179 94 244c-17 4 -34 6 -53 6c-167 0 -254 -142 -254 -258c0 -113 85 -256 261 -256c16 0 31 1 46 4zM962 909l-226 -125l-53 92l222 135z" />
    <glyph glyph-name="G_Ograve" unicode="&#xe0fe;" horiz-adv-x="1184" 
d="M1151 368c0 -212 -174 -383 -387 -383c-61 0 -118 14 -169 38c-52 -24 -110 -38 -170 -38c-212 0 -398 163 -398 385c0 218 185 385 394 385c64 0 123 -15 173 -39c51 25 109 39 170 39c210 0 387 -168 387 -387zM1014 369c0 142 -111 258 -250 258c-16 0 -31 -1 -46 -4
c29 -33 50 -67 62 -100h-154c-7 11 -21 27 -31 37c-49 -48 -79 -113 -81 -183h303v-16c0 -94 -36 -179 -95 -244c14 -3 27 -4 42 -4c141 0 250 119 250 256zM652 249h-108c13 -25 34 -51 54 -71c20 19 41 45 54 71zM471 117c-33 38 -59 83 -75 132h-62v128h43
c2 95 37 179 94 244c-17 4 -34 6 -53 6c-167 0 -254 -142 -254 -258c0 -113 85 -256 261 -256c16 0 31 1 46 4zM883 866l-53 -92l-226 125l57 102z" />
    </font>
</defs>
</svg>
